[bittorrent] Phil Lesh And Friends The Capitol Theatre Port Chester, New York 10/19/2021 (Z-Man Schoeps CCM4V'S FOB)

Automated Mailer noreply-bt.e at etree.org
Wed Oct 20 06:22:42 UTC 2021


Band:           Phil Lesh & Friends
Torrent Name:   Phil Lesh And Friends  The Capitol Theatre Port Chester, New York 10/19/2021 (Z-Man Schoeps CCM4V'S FOB)
Uploaded by:    zmanatl
DB Link:        
Details:        http://bt.etree.org/details.php?id=614198

Contact the seeder at http://db.etree.org/zmanatl

If the link to this show does not work, it was probably removed for
being non-trade-friendly.

Description / text file:
-------------------------
Phil Lesh And Friends 
The Capitol Theatre
Port Chester, New York
10/19/2021

Source: Schoeps CCM4V'S>Lunatec V2>Sound Devices 722 (24/44.1)
FOB/OTS/DRFC/KFC/ZFC/AARP 35' From Stage, 7 1/2' High
DSP: Sound Devices 722>Sound Forge 10.0>CD Wave>flac(16)
ID3 Tagged In Foobar 2000
Recorded By: Z-Man
Seeded By: Z-Man
A Team Dirty South Recording

Disc I 1st Set

01 Jam
02 Uncle John’s Band
03 He’s Gone
04 Must Have Been The Roses 
05 Brown-Eyed Women
06 Cassidy >
07 New Speedway Boogie

Disc II 2nd Set

01 Jam >
02 Help On The Way >
03 Slipknot! >
04 China Doll >
05 *Franklin’s Tower
06 Estimated Prophet >
07 Eyes Of The World >
08 Scarlet Begonias 
09 The Music Never Stopped

Disc III Encore

01 Phil Donor Rap
02 Cold Rain And Snow

* With Blue Sky Jam 

Phil Lesh -  Bass And Vocals
Grahame Lesh - Guitar And Vocals
Josh Kaufman - Guitar And Vocals
Eric D. Johnson - Guitar
Benmont Tench - Keyboards
Stuart Bogie - Saxophone, Flute, And Clarinet
Joe Russo - Drums
Elliott Peck - Vocals

phil2021-10-19d01t01.flac:b2573abc25f6851893d465a912bd9f1b
phil2021-10-19d01t02.flac:03a9b82d37e4f9b0e194d21512baac2b
phil2021-10-19d01t03.flac:46f537c424458ed29a31481cb1e9bab0
phil2021-10-19d01t04.flac:ee2311cb7b7821d8cdeeff43b6c72508
phil2021-10-19d01t05.flac:33e5f3cade510b1621630a7d06f6a519
phil2021-10-19d01t06.flac:039da505029e471a9ece81f390b85d87
phil2021-10-19d01t07.flac:e068b2e740ce76e237bd154db293722f
phil2021-10-19d02t01.flac:b7a5b42feb9944c2938e8cf9e0073005
phil2021-10-19d02t02.flac:587a922a12fcc60448d21c79dff73a47
phil2021-10-19d02t03.flac:1d6cbd7b94a096cb40d3878683735b71
phil2021-10-19d02t04.flac:7ee4669dda0c92ab4d8c6e0a3dff41cf
phil2021-10-19d02t05.flac:aaf0aee0364df659a8447a77f17d05e7
phil2021-10-19d02t06.flac:71f2426e34b413471651baa39c73556a
phil2021-10-19d02t07.flac:6804cc9820ed88c48ebbe533ecfececa
phil2021-10-19d02t08.flac:5532a66b5e67527c00ce8cc043782092
phil2021-10-19d02t09.flac:06f6bed8d0f7b01bb9590bd0367a41a4
phil2021-10-19d03t01.flac:94be918765bacd9f2e3259a6a64ab65f
phil2021-10-19d03t02.flac:4a2b9ff65fee4305241a43d93f44ca9b

  length     expanded size    cdr  WAVE problems  fmt   ratio  filename
     1:42.02       17997548 B   ---   --   ---xx   flac  0.3541  phil2021-10-19d01t01.flac
    12:23.67      131222828 B   ---   --   ---xx   flac  0.5264  phil2021-10-19d01t02.flac
    12:23.01      131067596 B   ---   --   ---xx   flac  0.4735  phil2021-10-19d01t03.flac
    10:19.37      109278668 B   ---   --   ---xx   flac  0.4382  phil2021-10-19d01t04.flac
     9:03.28       95851100 B   ---   --   ---xx   flac  0.5242  phil2021-10-19d01t05.flac
    11:27.39      121278572 B   ---   --   ---xx   flac  0.5189  phil2021-10-19d01t06.flac
    14:37.58      154839260 B   ---   --   ---xx   flac  0.5165  phil2021-10-19d01t07.flac
     2:05.68       22209980 B   ---   --   ---xx   flac  0.3686  phil2021-10-19d02t01.flac
     5:43.04       60514652 B   ---   --   ---xx   flac  0.5134  phil2021-10-19d02t02.flac
     6:52.14       72709772 B   ---   --   ---xx   flac  0.5270  phil2021-10-19d02t03.flac
     7:02.47       74551388 B   ---   --   ---xx   flac  0.4338  phil2021-10-19d02t04.flac
    12:29.12      132151868 B   ---   --   ---xx   flac  0.5128  phil2021-10-19d02t05.flac
     9:53.67      104762828 B   ---   --   ---xx   flac  0.5119  phil2021-10-19d02t06.flac
    15:14.43      161330780 B   ---   --   ---xx   flac  0.5161  phil2021-10-19d02t07.flac
    11:13.21      118766636 B   ---   --   ---xx   flac  0.5219  phil2021-10-19d02t08.flac
     9:02.43       95709980 B   ---   --   ---xx   flac  0.5179  phil2021-10-19d02t09.flac
     2:10.00       22932044 B   ---   --   ---xx   flac  0.3612  phil2021-10-19d03t01.flac
     8:54.55       94327004 B   ---   --   ---xx   flac  0.5320  phil2021-10-19d03t02.flac
   162:39.06     1721502504 B                            0.5014  (18 files)






More information about the bittorrent mailing list