[bittorrent] Elliott Peck And Patrick Ferguson Garcia's The Capitol Theatre Port Chester, New York 10/18/2021 (Z-Man Schoeps CCM4V'S FOB)

Automated Mailer noreply-bt.e at etree.org
Tue Oct 19 17:19:25 UTC 2021


Band:           Other
Torrent Name:   Elliott Peck And Patrick Ferguson Garcia's The Capitol Theatre Port Chester, New York 10/18/2021 (Z-Man Schoeps CCM4V'S FOB)
Uploaded by:    zmanatl
DB Link:        
Details:        http://bt.etree.org/details.php?id=614194

Contact the seeder at http://db.etree.org/zmanatl

If the link to this show does not work, it was probably removed for
being non-trade-friendly.

Description / text file:
-------------------------
Elliott Peck And Patrick Ferguson
Garcia's
The Capitol Theatre
Port Chester, New York
10/18/2021

Source: Schoeps CCM4V'S>Lunatec V2>Sound Devices 722 (24/44.1)
FOB/OTS/DRFC/KFC/ZFC/AARP 3' From Stage, 7' High
DSP: Sound Devices 722>Sound Forge 10.0>CD Wave>flac(16)
ID3 Tagged In Foobar 2000
Recorded By: Z-Man
Seeded By: Z-Man
A Team Dirty South Recording

Disc I 

01 Greeting By Elliott
02 Dead To The Fire
03 Amarillo
04 Angel From Montgomery
05 The Night
06 Good For You 
07 Solace
08 Jubilee
09 Tennessee
10 Howl
11 Tear My Stillhouse Down 
12 The Reef

Elliott Peck - Acoustic Guitar And Vocals
Patrick Ferguson - Acoustic Guitar And Vocals

elliott2021-10-18d01t01.flac:0f90ef200877651e85f9516f46e5ee6f
elliott2021-10-18d01t02.flac:c920bb3f9bd3e2141a286204c09046b1
elliott2021-10-18d01t03.flac:57907f13d53e5497a4b491c821ba4cd9
elliott2021-10-18d01t04.flac:cb4cd7901875b9320d90f70e53051bf0
elliott2021-10-18d01t05.flac:bf99576fe31cfd452216c9f8f89cd104
elliott2021-10-18d01t06.flac:eb9e22bf8c9513e1a201142e0e6bd971
elliott2021-10-18d01t07.flac:d07b8bfe51403223229a482156bbbe87
elliott2021-10-18d01t08.flac:a2acca8a5c57287b77930ccd96048287
elliott2021-10-18d01t09.flac:d0b0a88d0d1d3bac0de54abe4b54f961
elliott2021-10-18d01t10.flac:3fcc33ff6ddf30ea5e8878e7f28b7371
elliott2021-10-18d01t11.flac:78d7c66a69a471c09ed1c72104e80166
elliott2021-10-18d01t12.flac:3b8032d97f4727af353d15a834dd2f92

 length     expanded size    cdr  WAVE problems  fmt   ratio  filename
     1:09.51       12291596 B   ---   --   ---xx   flac  0.3784  elliott2021-10-18d01t01.flac
     4:49.28       51045500 B   ---   --   ---xx   flac  0.4348  elliott2021-10-18d01t02.flac
     6:41.36       70821116 B   ---   --   ---xx   flac  0.4254  elliott2021-10-18d01t03.flac
     6:40.42       70658828 B   ---   --   ---xx   flac  0.4128  elliott2021-10-18d01t04.flac
     6:53.17       72893228 B   ---   --   ---xx   flac  0.4273  elliott2021-10-18d01t05.flac
     4:23.45       46499084 B   ---   --   ---xx   flac  0.4138  elliott2021-10-18d01t06.flac
     7:24.03       78328700 B   ---   --   ---xx   flac  0.3475  elliott2021-10-18d01t07.flac
     3:45.54       39817052 B   ---   --   ---xx   flac  0.4127  elliott2021-10-18d01t08.flac
     7:11.21       76077836 B   ---   --   ---xx   flac  0.4104  elliott2021-10-18d01t09.flac
     9:04.02       95966348 B   ---   --   ---xx   flac  0.4098  elliott2021-10-18d01t10.flac
     5:26.19       57551132 B   ---   --   ---xx   flac  0.4935  elliott2021-10-18d01t11.flac
     5:41.67       60310028 B   ---   --   ---xx   flac  0.4574  elliott2021-10-18d01t12.flac
    69:11.10      732260448 B                            0.4189  (12 files)





More information about the bittorrent mailing list