[bittorrent] Phil Lesh And Friends The Capitol Theatre Port Chester, New York 10/18/2021 (Z-Man Schoeps CCM4V'S FOB)

Automated Mailer noreply-bt.e at etree.org
Tue Oct 19 07:06:03 UTC 2021


Band:           Phil Lesh & Friends
Torrent Name:   Phil Lesh And Friends  The Capitol Theatre Port Chester, New York 10/18/2021 (Z-Man Schoeps CCM4V'S FOB)
Uploaded by:    zmanatl
DB Link:        
Details:        http://bt.etree.org/details.php?id=614190

Contact the seeder at http://db.etree.org/zmanatl

If the link to this show does not work, it was probably removed for
being non-trade-friendly.

Description / text file:
-------------------------
Phil Lesh And Friends 
The Capitol Theatre
Port Chester, New York
10/18/2021

Source: Schoeps CCM4V'S>Lunatec V2>Sound Devices 722 (24/44.1)
FOB/OTS/DRFC/KFC/ZFC/AARP 35' From Stage, 7 1/2' High
DSP: Sound Devices 722>Sound Forge 10.0>CD Wave>flac(16)
ID3 Tagged In Foobar 2000
Recorded By: Z-Man
Seeded By: Z-Man
A Team Dirty South Recording

Disc I 1st Set

01 Jam >
02 Althea >
03 No Time To Cry 
04 Crazy Fingers >
05 Greatest Story Ever Told
06 Atlantic City
07 Deal
08 Brokedown Palace

Disc II 2nd Set 

01 China-Cat Sunflower >
02 I Know You Rider
03 The Wheel >
04 New Potato Caboose >
05 Two Souls In Communion >
06 Wharf Rat >
07 Box Of Rain

Disc III 2nd Set Con’t

01 Sugar Magnolia
Encore: 
02 Phil Donor Rap
03 Ophelia
04 *Ripple

*Fast Version

Phil Lesh -  Bass And Vocals
Grahame Lesh - Guitar And Vocals
Josh Kaufman - Guitar And Vocals
Eric D. Johnson - Guitar
Benmont Tench - Keyboards
Stuart Bogie - Saxophone, Flute, And Clarinet
Joe Russo - Drums
Amy Helm - Vocals

phil2021-10-18d01t01.flac:4abdef1534c6227a40711312cb8dec18
phil2021-10-18d01t02.flac:153739bccfd5898bf6c41633280dfded
phil2021-10-18d01t03.flac:65e2fdce71a837947e26343ea75d87f2
phil2021-10-18d01t04.flac:3ec85de077ca505b39316460f37f2614
phil2021-10-18d01t05.flac:30432feb7dd145c66576aa6ab6b350a2
phil2021-10-18d01t06.flac:1545bb721bfee22fbc7443cb89ccf1bb
phil2021-10-18d01t07.flac:ce62346c1023fea8c48588117b5013f2
phil2021-10-18d01t08.flac:ec3467ad58c2905e091dfff9ffda717b
phil2021-10-18d02t01.flac:c68aa8871fe82e00c97ef77292d498e1
phil2021-10-18d02t02.flac:416875e402f86e08bf552c7ef6426718
phil2021-10-18d02t03.flac:9932c5656d9349d783afb6723250e0b5
phil2021-10-18d02t04.flac:2880edd2cf980f51334053f4c3c2d53c
phil2021-10-18d02t05.flac:4c4f5f38a343533e3bb50171d2fea437
phil2021-10-18d02t06.flac:a555ecb15b4cdd8dd921bdb3d8b89120
phil2021-10-18d02t07.flac:a6f024dfe2678f535c581ed338156299
phil2021-10-18d03t01.flac:ce239e30a07dcf8a49b805af7da32479
phil2021-10-18d03t02.flac:f19cfcc33c5c8d91fe496faac1979030
phil2021-10-18d03t03.flac:ed20839dac03400fbb1bf6b8c70ec339
phil2021-10-18d03t04.flac:b2df48b10775aacbad414e51bd5b1748

  length     expanded size    cdr  WAVE problems  fmt   ratio  filename
     2:33.16       27026876 B   ---   --   ---xx   flac  0.4052  phil2021-10-18d01t01.flac
    12:18.62      130329068 B   ---   --   ---xx   flac  0.5302  phil2021-10-18d01t02.flac
     3:01.10       31951964 B   ---   --   ---xx   flac  0.5679  phil2021-10-18d01t03.flac
    13:15.03      140245100 B   ---   --   ---xx   flac  0.4951  phil2021-10-18d01t04.flac
     8:09.58       86396060 B   ---   --   ---xx   flac  0.5586  phil2021-10-18d01t05.flac
     7:42.26       81557996 B   ---   --   ---xx   flac  0.5446  phil2021-10-18d01t06.flac
    10:41.29      113140652 B   ---   --   ---xx   flac  0.5548  phil2021-10-18d01t07.flac
     7:13.21       76430636 B   ---   --   ---xx   flac  0.4447  phil2021-10-18d01t08.flac
     7:49.53       82856300 B   ---   --   ---xx   flac  0.5347  phil2021-10-18d02t01.flac
     9:42.27      102728348 B   ---   --   ---xx   flac  0.5476  phil2021-10-18d02t02.flac
    13:55.54      147421052 B   ---   --   ---xx   flac  0.4602  phil2021-10-18d02t03.flac
    10:41.17      113112428 B   ---   --   ---xx   flac  0.4812  phil2021-10-18d02t04.flac
    11:04.53      117254300 B   ---   --   ---xx   flac  0.4838  phil2021-10-18d02t05.flac
    12:46.56      135254156 B   ---   --   ---xx   flac  0.4845  phil2021-10-18d02t06.flac
     6:06.50       64680044 B   ---   --   ---xx   flac  0.5440  phil2021-10-18d02t07.flac
     8:38.65       91528124 B   ---   --   ---xx   flac  0.5700  phil2021-10-18d03t01.flac
     3:04.40       32551724 B   ---   --   ---xx   flac  0.3872  phil2021-10-18d03t02.flac
     5:29.02       58040348 B   ---   --   ---xx   flac  0.5396  phil2021-10-18d03t03.flac
     4:48.67       50960828 B   ---   --   ---xx   flac  0.5642  phil2021-10-18d03t04.flac
   159:03.34     1683466004 B                            0.5122  (19 files)







More information about the bittorrent mailing list