[bittorrent] Keller Williams Solo The Variety Playhouse Atlanta, Georgia 10/16/2021 (Z-Man Schoeps CCM4V'S FOB)

Automated Mailer noreply-bt.e at etree.org
Mon Oct 18 12:15:13 UTC 2021


Band:           Keller Williams
Torrent Name:   Keller Williams Solo The Variety Playhouse Atlanta, Georgia 10/16/2021 (Z-Man Schoeps CCM4V'S FOB)
Uploaded by:    zmanatl
DB Link:        
Details:        http://bt.etree.org/details.php?id=614177

Contact the seeder at http://db.etree.org/zmanatl

If the link to this show does not work, it was probably removed for
being non-trade-friendly.

Description / text file:
-------------------------
Keller Williams Solo
The Variety Playhouse
Atlanta, Georgia
10/16/2021

Source: Schoeps CCM4V'S>Lunatec V2>Sound Devices 722 (24/44.1)
FOB/DFC/KFC/ZFC/AARP 12th Row, Between Seats 7 & 8, 7' High
DSP: Sound Devices 722>Sound Forge 10.0>CD Wave>flac(16)
ID3 Tagged In Foobar 2000
Recorded By: Z-Man
Seeded By: Z-Man
A Team Dirty South Recording

Disc I 

01 ? >
02 ?
03 Breathe >
04 The Big One >
05 ? >
06 ? >
07 Breathe
08 Never Trust A Hippie
09 Mantra 
10 They Love Each Other/Cumberland Blues
11 Best Feeling >
12 Doobie In My Pocket >
13 Freaker By The Speaker

keller2021-10-16d01t01.flac:6f0bfd265e9befa0b704f6f8e301d8c2
keller2021-10-16d01t02.flac:24c8187fe43971ffb69ee85dffd9e20f
keller2021-10-16d01t03.flac:681fd4d6afe5907fff0e117ee47181c9
keller2021-10-16d01t04.flac:4d7c66f47cba35ee81a07d7b1a85e1f7
keller2021-10-16d01t05.flac:f563842f7fa561cc6f606a9b7d0083f2
keller2021-10-16d01t06.flac:e762fc4cc8f7199c4fb3358e04482a01
keller2021-10-16d01t07.flac:de19907a23f47b75fbbb586632d41c48
keller2021-10-16d01t08.flac:e4e30d571d590023b157a775b4f5a133
keller2021-10-16d01t09.flac:38e8d6e7a921a8ed17bd0ff8994d73fb
keller2021-10-16d01t10.flac:4fc567a03fd685daf0bd4a74c3fac795
keller2021-10-16d01t11.flac:dd0843cb7c510ab3aa3c394e9a6ed80f
keller2021-10-16d01t12.flac:994b21183de33b978d0babb591e1b98e
keller2021-10-16d01t13.flac:d33233059e91494994bb17708d3c609f

 length     expanded size    cdr  WAVE problems  fmt   ratio  filename
     3:31.03       37227500 B   ---   --   ---xx   flac  0.3795  keller2021-10-16d01t01.flac
     4:52.14       51541772 B   ---   --   ---xx   flac  0.3570  keller2021-10-16d01t02.flac
     3:00.69       31914332 B   ---   --   ---xx   flac  0.3840  keller2021-10-16d01t03.flac
     3:46.62       40012268 B   ---   --   ---xx   flac  0.3707  keller2021-10-16d01t04.flac
     3:34.44       37853132 B   ---   --   ---xx   flac  0.4154  keller2021-10-16d01t05.flac
     4:03.17       42905228 B   ---   --   ---xx   flac  0.4218  keller2021-10-16d01t06.flac
     1:32.36       16313516 B   ---   --   ---xx   flac  0.3966  keller2021-10-16d01t07.flac
     4:45.23       50328140 B   ---   --   ---xx   flac  0.3934  keller2021-10-16d01t08.flac
    11:39.64      123454172 B   ---   --   ---xx   flac  0.4239  keller2021-10-16d01t09.flac
     7:04.09       74814812 B   ---   --   ---xx   flac  0.4078  keller2021-10-16d01t10.flac
    14:58.34      158487212 B   ---   --   ---xx   flac  0.4220  keller2021-10-16d01t11.flac
     5:16.19       55787132 B   ---   --   ---xx   flac  0.4180  keller2021-10-16d01t12.flac
    11:36.26      122835596 B   ---   --   ---xx   flac  0.4779  keller2021-10-16d01t13.flac
    79:41.45      843474812 B                            0.4167  (13 files)






More information about the bittorrent mailing list