[bittorrent] Leftover Salmon The Variety Playhouse Atlanta, Georgia 10/16/2021 (Z-Man Schoeps CCM4V'S FOB)

Automated Mailer noreply-bt.e at etree.org
Sun Oct 17 05:49:16 UTC 2021


Band:           Leftover Salmon
Torrent Name:   Leftover Salmon The Variety Playhouse Atlanta, Georgia 10/16/2021 (Z-Man Schoeps CCM4V'S FOB)
Uploaded by:    zmanatl
DB Link:        
Details:        http://bt.etree.org/details.php?id=614172

Contact the seeder at http://db.etree.org/zmanatl

If the link to this show does not work, it was probably removed for
being non-trade-friendly.

Description / text file:
-------------------------
Leftover Salmon
The Variety Playhouse
Atlanta, Georgia
10/16/2021

Source: Schoeps CCM4V'S>Lunatec V2>Sound Devices 722 (24/44.1)
FOB/DFC/KFC/ZFC/AARP 12th Row, Between Seats 7 & 8, 7' High
DSP: Sound Devices 722>Sound Forge 10.0>CD Wave>flac(16)
ID3 Tagged In Foobar 2000
Recorded By: Z-Man
Seeded By: Z-Man
A Team Dirty South Recording

Disc I 

01 Steam-Powered Aireoplane
02 Jokester
03 Midnight Run
04 We'll Get By
05 Somethiung Higher
06 Find A Better Way
07 Evermore
08 Southern Belle

Disc II 

01 Bring Up Mimi Naja
02 *Sittin' On Top Of The World 
03 *#Wild Horses >
04 *#Teen Angst
05 #@Cripple Creek
Encore:
06 #Franklin's Tower

* With Mimi Naja Of Fruition On Guitar And Vocals
# With Keller Williamns On Guitar And Vocals
@ With Mimi Naja Of Fruition On Washboard And Vocals

Vince Hermann - Acoustic Guitar, Washboard, And Vocals
Drew Emmitt - Mandolin, Electric Guitar, And Vocals
Greg Garrison - Bass And Vocals
Grant Duffy - Pedal Steel Guitar And Dobro
Alwyn Robinson - Drums

leftover2021-10-16d01t01.flac:8a789d0cf28709756344d797f9a9be65
leftover2021-10-16d01t02.flac:243fa67d30b496e7b750e4000c2e6136
leftover2021-10-16d01t03.flac:c1b17f65658bade240b29d95aaf33a9e
leftover2021-10-16d01t04.flac:11391ec48c2ece314fc4acbf6a7b68ef
leftover2021-10-16d01t05.flac:406ad40621329cc043e39eec0c266cce
leftover2021-10-16d01t06.flac:f854f549ad8dc8bd855bc86027dde036
leftover2021-10-16d01t07.flac:cbf84080ef1c9cadfc9f07a2f0dc2360
leftover2021-10-16d01t08.flac:a80020748f9593c35fe0dc253888d028
leftover2021-10-16d02t01.flac:43fc5690820d612a7c4f9123fa1dec7c
leftover2021-10-16d02t02.flac:ff117d8818deb65ac3a9c2d3e7b6aadd
leftover2021-10-16d02t03.flac:a8ed4dc62696190fb519c5bf745421e6
leftover2021-10-16d02t04.flac:e7a5a7464e219338e6dc1f509a137b1b
leftover2021-10-16d02t05.flac:c2802533878cfd70195a796b4889803a
leftover2021-10-16d02t06.flac:cd909e7e4084b4568e4bafe9f82529c5

  length     expanded size    cdr  WAVE problems  fmt   ratio  filename
     5:30.38       58301420 B   ---   --   ---xx   flac  0.4630  leftover2021-10-16d01t01.flac
     5:03.22       53500988 B   ---   --   ---xx   flac  0.4919  leftover2021-10-16d01t02.flac
     3:57.43       41907980 B   ---   --   ---xx   flac  0.4634  leftover2021-10-16d01t03.flac
     5:28.18       57901580 B   ---   --   ---xx   flac  0.4609  leftover2021-10-16d01t04.flac
     7:31.13       79587020 B   ---   --   ---xx   flac  0.5248  leftover2021-10-16d01t05.flac
     5:17.06       55932956 B   ---   --   ---xx   flac  0.4379  leftover2021-10-16d01t06.flac
    11:02.43      116877980 B   ---   --   ---xx   flac  0.4670  leftover2021-10-16d01t07.flac
    14:50.49      157111292 B   ---   --   ---xx   flac  0.4912  leftover2021-10-16d01t08.flac
     1:49.44       19331132 B   ---   --   ---xx   flac  0.3767  leftover2021-10-16d02t01.flac
     7:32.34       79812812 B   ---   --   ---xx   flac  0.4270  leftover2021-10-16d02t02.flac
     7:50.55       83037404 B   ---   --   ---xx   flac  0.4666  leftover2021-10-16d02t03.flac
     6:55.65       73358924 B   ---   --   ---xx   flac  0.5012  leftover2021-10-16d02t04.flac
    12:21.69      130874732 B   ---   --   ---xx   flac  0.5028  leftover2021-10-16d02t05.flac
    11:31.56      122024156 B   ---   --   ---xx   flac  0.4738  leftover2021-10-16d02t06.flac
   106:43.30     1129560376 B                            0.4762  (14 files)




More information about the bittorrent mailing list