[bittorrent] Escape Vehicle Steady Hand Beer Co. Atlanta, Georgia 10/15/2021 (Z-Man Schoeps CCM4V'S FOB)

Automated Mailer noreply-bt.e at etree.org
Sat Oct 16 19:48:44 UTC 2021


Band:           Other
Torrent Name:   Escape Vehicle Steady Hand Beer Co. Atlanta, Georgia 10/15/2021 (Z-Man Schoeps CCM4V'S FOB)
Uploaded by:    zmanatl
DB Link:        
Details:        http://bt.etree.org/details.php?id=614169

Contact the seeder at http://db.etree.org/zmanatl

If the link to this show does not work, it was probably removed for
being non-trade-friendly.

Description / text file:
-------------------------
Escape Vehicle
Steady Hand Beer Co.
Atlanta, Georgia
10/15/2021

Source: Schoeps CCM4V'S>Lunatec V2>Sound Devices 722 (24/44.1)
FOB/DFC/KFC/ZFC/AARP 10' From Stage, 5 1/2' High
DSP: Sound Devices 722>Sound Forge 10.0>CD Wave>flac(16)
ID3 Tagged In Foobar 2000
Recorded By: Z-Man
Seeded By: Z-Man
A Team Dirty South Recording

Disc I 1st Set

01 Soundcheck: I Know You Rider
1st Set:
02 Greeting By Loaf
03 Golden Road To Unlimited Devotion
04 We Got Game
05 Love In The Aftrernoon
06 Mr. Charlie
07 Disco >
08 Ziggy Stardust
09 Shady Lady
10 Hard To Handle
11 Rainstorm 
12 North

Disc II 2nd Set

01 Young Lust
02 Papa Legba
03 Crazy Fingers >
04 Dirty Mind >
05 The Other One >
06 Cocaine >
07 Unbroken Chain Jam >
08 The Other One >
09 Morning Dew >
10 Dirty Mind
Encore:
11 Banter
12 Light Up Or Leave Me Alone >
13 Use Me
14 Fine Company

Kevin Moore - Guitar And Vocals
Scott Lofranco - Guitar And Vocals
Malcom Fields - Bass And Vocals
Grant Duffy - Keyboard And Vocals
Ryan Marcus - Drums

escape2021-10-15d01t01.flac:c57eda9a2e196eadd1a460409ec88b35
escape2021-10-15d01t02.flac:dd623d7dbbe950ab549bdc44df609719
escape2021-10-15d01t03.flac:20a43da678051ad5b8713feb2d0b4e89
escape2021-10-15d01t04.flac:1b6ac5ed5a613943b60fed32816fcfc6
escape2021-10-15d01t05.flac:cb64ed1d47f33cef72379fb25e6682a0
escape2021-10-15d01t06.flac:5677ba61707777f6368c17790b45da62
escape2021-10-15d01t07.flac:b6c3e73e2f771df4532591c2361c8988
escape2021-10-15d01t08.flac:66484c9b52f58fa1dd88887a02418dff
escape2021-10-15d01t09.flac:fa07ee0100e12f71c769db77e8f7b426
escape2021-10-15d01t10.flac:6ba876e1309a4241ca3e1f78df3304c2
escape2021-10-15d01t11.flac:b6bb8f65c78c9a3800335c58006e1fe7
escape2021-10-15d01t12.flac:2a1708ee40a7e6d69d0ebabe8726ac67
escape2021-10-15d02t01.flac:e2eae73333f884657994ae67523a3bda
escape2021-10-15d02t02.flac:d78437c36bd2887c51fab420ee18e7be
escape2021-10-15d02t03.flac:3332c31edae50185d4cad21697ad890e
escape2021-10-15d02t04.flac:ab0294224dada630879aaeba0bfd48d1
escape2021-10-15d02t05.flac:43a3ead863099e9e5128e393feb3ebbe
escape2021-10-15d02t06.flac:ce82bc5a4404c2e085ccb2a7a8cc2434
escape2021-10-15d02t07.flac:90dc7de39c7c3c6c9f698ccc84e94fa8
escape2021-10-15d02t08.flac:32d88ca2165ccc907a95d4818de93c21
escape2021-10-15d02t09.flac:946284bfe80f21218519f57bb68caefc
escape2021-10-15d02t10.flac:3aa48b0fcf9669ff4f2e09a01eade79c
escape2021-10-15d02t11.flac:7009a9fbd6594b58453e80991751a326
escape2021-10-15d02t12.flac:10cf501d510937fb33b745236da6222d
escape2021-10-15d02t13.flac:dd513662e60fd71823b1f355851079a4
escape2021-10-15d02t14.flac:243832eae9ccbf51697842acf3e71e07

  length     expanded size    cdr  WAVE problems  fmt   ratio  filename
     5:52.48       62205740 B   ---   --   ---xx   flac  0.5471  escape2021-10-15d01t01.flac
     0:27.01        4765196 B   ---   --   ---xx   flac  0.3961  escape2021-10-15d01t02.flac
     5:38.36       59707916 B   ---   --   ---xx   flac  0.5368  escape2021-10-15d01t03.flac
     4:54.45       51967484 B   ---   --   ---xx   flac  0.5097  escape2021-10-15d01t04.flac
     6:48.12       71999468 B   ---   --   ---xx   flac  0.5235  escape2021-10-15d01t05.flac
     7:31.00       79556444 B   ---   --   ---xx   flac  0.5646  escape2021-10-15d01t06.flac
     5:19.36       56356316 B   ---   --   ---xx   flac  0.6120  escape2021-10-15d01t07.flac
     3:57.10       41830364 B   ---   --   ---xx   flac  0.5609  escape2021-10-15d01t08.flac
     6:43.55       71218604 B   ---   --   ---xx   flac  0.5672  escape2021-10-15d01t09.flac
     5:59.04       63337052 B   ---   --   ---xx   flac  0.5779  escape2021-10-15d01t10.flac
    10:16.23      108716540 B   ---   --   ---xx   flac  0.5899  escape2021-10-15d01t11.flac
     7:19.32       77514908 B   ---   --   ---xx   flac  0.5988  escape2021-10-15d01t12.flac
     5:33.25       58800044 B   ---   --   ---xx   flac  0.5412  escape2021-10-15d02t01.flac
     8:07.53       86031500 B   ---   --   ---xx   flac  0.5828  escape2021-10-15d02t02.flac
     9:52.57      104562908 B   ---   --   ---xx   flac  0.5530  escape2021-10-15d02t03.flac
     5:10.57       54818108 B   ---   --   ---xx   flac  0.6116  escape2021-10-15d02t04.flac
     3:37.16       38316476 B   ---   --   ---xx   flac  0.6049  escape2021-10-15d02t05.flac
     4:58.65       52720124 B   ---   --   ---xx   flac  0.5857  escape2021-10-15d02t06.flac
     3:22.60       35773964 B   ---   --   ---xx   flac  0.5842  escape2021-10-15d02t07.flac
     2:04.07       21890108 B   ---   --   ---xx   flac  0.6160  escape2021-10-15d02t08.flac
     8:27.05       89446604 B   ---   --   ---xx   flac  0.5684  escape2021-10-15d02t09.flac
     3:25.44       36265532 B   ---   --   ---xx   flac  0.4730  escape2021-10-15d02t10.flac
     0:45.25        7996844 B   ---   --   ---xx   flac  0.3663  escape2021-10-15d02t11.flac
     9:10.22       97071788 B   ---   --   ---xx   flac  0.5880  escape2021-10-15d02t12.flac
     7:54.51       83733596 B   ---   --   ---xx   flac  0.5578  escape2021-10-15d02t13.flac
     7:27.31       78923756 B   ---   --   ---xx   flac  0.5337  escape2021-10-15d02t14.flac
   150:44.70     1595527384 B                            0.5648  (26 files)






More information about the bittorrent mailing list