[bittorrent] Magnolia Express Atlanta Botanical Gardens Atlanta, Georgia 10/15/2021 (Z-Man Schoeps CCM4V'S FOB)

Automated Mailer noreply-bt.e at etree.org
Sat Oct 16 05:59:51 UTC 2021


Band:           Other
Torrent Name:   Magnolia Express Atlanta Botanical Gardens Atlanta, Georgia 10/15/2021 (Z-Man Schoeps CCM4V'S FOB)
Uploaded by:    zmanatl
DB Link:        
Details:        http://bt.etree.org/details.php?id=614159

Contact the seeder at http://db.etree.org/zmanatl

If the link to this show does not work, it was probably removed for
being non-trade-friendly.

Description / text file:
-------------------------
Magnolia Express
Atlanta Botanical Gardens
Atlanta, Georgia
10/15/2021

Source: Schoeps CCM4V'S>Lunatec V2>Sound Devices 722 (24/44.1)
FOB/DFC/KFC/ZFC/AARP 10' From Stage, 4 1/2' High
DSP: Sound Devices 722>Sound Forge 10.0>CD Wave>flac(16)
ID3 Tagged In Foobar 2000
Recorded By: Z-Man
Seeded By: Z-Man
A Team Dirty South Recording

Disc I 1st Set

01 Greeting
02 Pig In A Pen
03 Whiskey In The Jar
04 Hobo Song
05 Just My Lady And Me 
06 Willin'
07 The Monkey And The Engineer
08 Mama Raised Me Right But I Went Left >
09 Big River
10 Wild Horses 
11 Cold, Wet, Andf Gray 

Disc II 2nd Set

01 The Way It IS
02 Salt Creek
03 Mr. Spaceman 
04 Handsome Mollie
05 Foggy Mountain Breakdown
06 Angel From Montgomery
07 Old And In The Way
08 Sympathy For The Devil 
09 Old Joe Clark
10 Movin' On >
11 Friend Of The Devil
12 Good-Hearted Woman 
13 Ginseng Sullivan

Russell Brown - Guitar And Vocals
Scott Balun - Bass And Vocals
Jacques Dolan - Fiddle
Joe Kimsey - Banjo
Carrie Holley - Vocals 

magnolia2021-10-15d01t01.flac:0dc4090a8adb1da9921d61f90e62214a
magnolia2021-10-15d01t02.flac:4a988e9e932dfaf2c665e3657a9211ec
magnolia2021-10-15d01t03.flac:e3f9c1a8908ee5fa1af7a04cccd9ecbd
magnolia2021-10-15d01t04.flac:8959e0ffc19f1ea0d970670aa2389406
magnolia2021-10-15d01t05.flac:6fc022bacd86dcc7c6a55ecfed35a59e
magnolia2021-10-15d01t06.flac:5fdea6cb0ba5b08c8d3860617ed22e85
magnolia2021-10-15d01t07.flac:63187420ecc59f00d40b0cc28f392c46
magnolia2021-10-15d01t08.flac:e72000cb5e60786ff6d608cca956cd2b
magnolia2021-10-15d01t09.flac:b811aed087d5cdfbea44a92c3be5072d
magnolia2021-10-15d01t10.flac:053a7d5803f61742ed9bedee3da481a1
magnolia2021-10-15d01t11.flac:2882ccef0c00dbcd811138f9a0c5bd0b
magnolia2021-10-15d02t01.flac:e95e916d06ee1d6361f863e46b8eea8d
magnolia2021-10-15d02t02.flac:0f5c27a910b8e514fc9c741ffe55e382
magnolia2021-10-15d02t03.flac:503a764f72da472de11d6f0a9b4deefd
magnolia2021-10-15d02t04.flac:30d1fd2703faba78b6095bfa4146490a
magnolia2021-10-15d02t05.flac:ab9b3fddc8da2c5af1a324bfbf0ee47d
magnolia2021-10-15d02t06.flac:63f7d8f9c6d4541f6279d241b0fdf502
magnolia2021-10-15d02t07.flac:48e4e563e0384ae0676b27fa39ba2825
magnolia2021-10-15d02t08.flac:a8f2ff9d685e7a2eed9e83a4d6b02ae4
magnolia2021-10-15d02t09.flac:31b4f6016273232c2df6d1eec606ccb1
magnolia2021-10-15d02t10.flac:80141b039e24b5d775a97c4e8fbc522d
magnolia2021-10-15d02t11.flac:25f212853b7abbe76103864b66a32062
magnolia2021-10-15d02t12.flac:54da7987227fefe6fbac82913a0a00f7
magnolia2021-10-15d02t13.flac:d99939aee6f27e189cfb0cfd2d017b3b

 length     expanded size    cdr  WAVE problems  fmt   ratio  filename
     0:27.57        4896908 B   ---   --   ---xx   flac  0.4233  magnolia2021-10-15d01t01.flac
     3:08.39       33254972 B   ---   --   ---xx   flac  0.5121  magnolia2021-10-15d01t02.flac
     5:19.20       56318684 B   ---   --   ---xx   flac  0.5239  magnolia2021-10-15d01t03.flac
     7:26.60       78815564 B   ---   --   ---xx   flac  0.5421  magnolia2021-10-15d01t04.flac
     4:34.28       48399500 B   ---   --   ---xx   flac  0.5475  magnolia2021-10-15d01t05.flac
     7:05.47       75080588 B   ---   --   ---xx   flac  0.4871  magnolia2021-10-15d01t06.flac
     3:24.72       36154988 B   ---   --   ---xx   flac  0.5096  magnolia2021-10-15d01t07.flac
     2:49.46       29919836 B   ---   --   ---xx   flac  0.5506  magnolia2021-10-15d01t08.flac
     4:22.69       46379132 B   ---   --   ---xx   flac  0.5446  magnolia2021-10-15d01t09.flac
     5:12.37       55123868 B   ---   --   ---xx   flac  0.5146  magnolia2021-10-15d01t10.flac
     6:26.02       68095148 B   ---   --   ---xx   flac  0.5157  magnolia2021-10-15d01t11.flac
     5:35.37       59181068 B   ---   --   ---xx   flac  0.4921  magnolia2021-10-15d02t01.flac
     4:07.59       43709612 B   ---   --   ---xx   flac  0.4900  magnolia2021-10-15d02t02.flac
     3:44.64       39664172 B   ---   --   ---xx   flac  0.5149  magnolia2021-10-15d02t03.flac
     4:07.50       43688444 B   ---   --   ---xx   flac  0.4994  magnolia2021-10-15d02t04.flac
     2:28.16       26144876 B   ---   --   ---xx   flac  0.5157  magnolia2021-10-15d02t05.flac
     6:11.00       65444444 B   ---   --   ---xx   flac  0.4694  magnolia2021-10-15d02t06.flac
     4:02.09       42710012 B   ---   --   ---xx   flac  0.4976  magnolia2021-10-15d02t07.flac
     6:13.31       65870156 B   ---   --   ---xx   flac  0.5275  magnolia2021-10-15d02t08.flac
     3:12.23       33922940 B   ---   --   ---xx   flac  0.4879  magnolia2021-10-15d02t09.flac
     3:32.04       37406252 B   ---   --   ---xx   flac  0.5261  magnolia2021-10-15d02t10.flac
     4:56.11       52240316 B   ---   --   ---xx   flac  0.4842  magnolia2021-10-15d02t11.flac
     5:17.29       55987052 B   ---   --   ---xx   flac  0.5038  magnolia2021-10-15d02t12.flac
     2:59.39       31667372 B   ---   --   ---xx   flac  0.5042  magnolia2021-10-15d02t13.flac
   106:46.24     1130075904 B                            0.5103  (24 files)







More information about the bittorrent mailing list