[bittorrent] Barry Richman Blues Jam The Rusty Barrel Marietta, Georgia 10/14/2021 (Z-Man Schoeps CCM4V'S FOB)

Automated Mailer noreply-bt.e at etree.org
Fri Oct 15 17:16:44 UTC 2021


Band:           Other
Torrent Name:   Barry Richman Blues Jam The Rusty Barrel Marietta, Georgia 10/14/2021 (Z-Man Schoeps CCM4V'S FOB)  
Uploaded by:    zmanatl
DB Link:        
Details:        http://bt.etree.org/details.php?id=614156

Contact the seeder at http://db.etree.org/zmanatl

If the link to this show does not work, it was probably removed for
being non-trade-friendly.

Description / text file:
-------------------------
Barry Richman Blues Jam
The Rusty Barrel
Marietta, Georgia
10/14/2021

Source: Schoeps CCM4V'S>Lunatec V2>Sound Devices 722 (24/44.1)
FOB/DFC/KFC/ZFC/AARP 35' From Stage, 7 1/2' High
DSP: Sound Devices 722>Sound Forge 10.0>CD Wave>flac(16)
ID3 Tagged In Foobar 2000
Recorded By: Z-Man
Seeded By: Z-Man
A Team Dirty South Recording

Disc I 

01 Charlie Mentions The Passing Of Katie, Rusty Barrel Employee
02 The Creator And The Master Plan
03 Bacon
04 You Ain't Alone 
05 Little Wing
06 Steppin' Out

Barry Richman - Guitar
Dana McCarthy - Bass And Vocals
Charlie Korch - Drums And Vocals

barry2021-10-14d01t01.flac:ddcf7a2d69bb955b41b145c2a129ad24
barry2021-10-14d01t02.flac:96ec1d386f5ed71b33d95d416c5a990f
barry2021-10-14d01t03.flac:cf0d2a2250c310f2997a51d884413532
barry2021-10-14d01t04.flac:581a72ef8a81d60438e48855b6b6912a
barry2021-10-14d01t05.flac:ef8b4cf758d0aeb05bffed9a4651a2a8
barry2021-10-14d01t06.flac:14a729e04962665cd03e29b7c9f802c6

  length     expanded size    cdr  WAVE problems  fmt   ratio  filename
     2:02.48       21633740 B   ---   --   ---xx   flac  0.2969  barry2021-10-14d01t01.flac
     8:15.36       87402716 B   ---   --   ---xx   flac  0.4775  barry2021-10-14d01t02.flac
     3:44.45       39619484 B   ---   --   ---xx   flac  0.5036  barry2021-10-14d01t03.flac
     5:50.70       61904684 B   ---   --   ---xx   flac  0.4931  barry2021-10-14d01t04.flac
     7:32.00       79732844 B   ---   --   ---xx   flac  0.4363  barry2021-10-14d01t05.flac
     5:50.20       61787084 B   ---   --   ---xx   flac  0.4984  barry2021-10-14d01t06.flac
    33:15.69      352080552 B                            0.4664  (6 files)







More information about the bittorrent mailing list