[bittorrent] Phil Lesh And Friends The Capitol Theatre Port Chester, New York 10/13/2021 (Z-Man Schoeps CCM4V'S FOB)

Automated Mailer noreply-bt.e at etree.org
Thu Oct 14 06:40:12 UTC 2021


Band:           Phil Lesh & Friends
Torrent Name:   Phil Lesh And Friends The Capitol Theatre Port Chester, New York 10/13/2021 (Z-Man Schoeps CCM4V'S FOB)
Uploaded by:    zmanatl
DB Link:        
Details:        http://bt.etree.org/details.php?id=614149

Contact the seeder at http://db.etree.org/zmanatl

If the link to this show does not work, it was probably removed for
being non-trade-friendly.

Description / text file:
-------------------------
Phil Lesh And Friends
The Capitol Theatre
Port Chester, New York
10/13/2021

Source: Schoeps CCM4V'S>Lunatec V2>Sound Devices 722 (24/44.1)
FOB/OTS/DRFC/KFC/ZFC/AARP 35' From Stage, 7 1/2' High
DSP: Sound Devices 722>Sound Forge 10.0>CD Wave>flac(16)
ID3 Tagged In Foobar 2000
Recorded By: Z-Man
Seeded By: Z-Man
A Team Dirty South Recording

Disc I 1st Set

01 Celebration
02 Not Fade Away
03 China-Cat Sunflower >
04 New Potato Caboose
05 Help On The Way >
06 Slipknot! >
07 Lucy In The Sky

Disc II 2nd Set

01 Scarlet Begonias >
02 Fire On The Mountain >
03 Scarlet Begonias Reprise
04 Unbroken Chain

Disc III 2nd Set Con’t

01 Dark Star >
02 So What >
03 Low Spark Of High-Heeled Boys >
04 Dark Star >
05 I Am The Walrus >
06 Wharf Rat 
07 Stella Blue 
08 Slipknot! >  
09 Franklin's Tower
Encore:
10 Phil Donor Rap
11 Patchwork Quilt 
12 Band Introductions/Outro

Phil Lesh - Bass And Vocals
Warren Haynes - Guitar And Vocals
Jimmy Herring - Guitar
Rob Barraco - Keyboards And Vocals
John Molo - Drums

phil2021-10-13d01t01.flac:8181d2ba60c144ecf7bc011f0189dfd5
phil2021-10-13d01t02.flac:923a37f1a0845d4f879114de7e50f270
phil2021-10-13d01t03.flac:4166c1a36deab843e268e8ad0a3587d9
phil2021-10-13d01t04.flac:2869e34b7e0536be49fedbcf93bc88ea
phil2021-10-13d01t05.flac:d867eaae442022028596289348549c27
phil2021-10-13d01t06.flac:b0c9437ac72f11ae16ac6706972529a1
phil2021-10-13d01t07.flac:086784b6167c0c3f1a1ea17367d0158e
phil2021-10-13d02t01.flac:47f0739576582cab50370c581e9b298e
phil2021-10-13d02t02.flac:400c04da5ae0a11e05ae055cb00ed096
phil2021-10-13d02t03.flac:fd147a1cae57ef95a88b3875ace1f6ae
phil2021-10-13d02t04.flac:ec72cc6fd23d9485f5e3248649fe2c16
phil2021-10-13d03t01.flac:2f2d305f789849d2259408398fb414c6
phil2021-10-13d03t02.flac:91934de59ceb9cd4531b16148be20fa2
phil2021-10-13d03t03.flac:9a36dfa5543585a1148567c9a7732291
phil2021-10-13d03t04.flac:70823cd544aa7acc94adfd21225028ec
phil2021-10-13d03t05.flac:6ef5b201193f0fe3033a4c5a2f711d68
phil2021-10-13d03t06.flac:8ec888bc0f92a99d628f9cc6ca458eb5
phil2021-10-13d03t07.flac:d5716765a2e39604fa83bfd486250c7c
phil2021-10-13d03t08.flac:41ee945362c47010b08be03ad8e9a3e5
phil2021-10-13d03t09.flac:083f0e550d712ac057c91cc2e71f9771
phil2021-10-13d03t10.flac:148b78566c72aaefadb8c580128b117f
phil2021-10-13d03t11.flac:44d22e26f30c463430700cece8f1df36
phil2021-10-13d03t12.flac:acfcc94906e7c683eeaddfaa03d0e6fe

 length     expanded size    cdr  WAVE problems  fmt   ratio  filename
     6:18.67       66836828 B   ---   --   ---xx   flac  0.5468  phil2021-10-13d01t01.flac
    12:41.73      134412140 B   ---   --   ---xx   flac  0.5360  phil2021-10-13d01t02.flac
     7:11.19       76073132 B   ---   --   ---xx   flac  0.5334  phil2021-10-13d01t03.flac
     8:58.31       94976156 B   ---   --   ---xx   flac  0.5058  phil2021-10-13d01t04.flac
     5:03.31       53522156 B   ---   --   ---xx   flac  0.5524  phil2021-10-13d01t05.flac
     8:43.33       92334860 B   ---   --   ---xx   flac  0.5265  phil2021-10-13d01t06.flac
     4:56.17       52254428 B   ---   --   ---xx   flac  0.5144  phil2021-10-13d01t07.flac
    11:04.63      117277820 B   ---   --   ---xx   flac  0.5188  phil2021-10-13d02t01.flac
    19:54.19      210666332 B   ---   --   ---xx   flac  0.5038  phil2021-10-13d02t02.flac
     2:06.72       22395788 B   ---   --   ---xx   flac  0.4892  phil2021-10-13d02t03.flac
    14:59.03      158590700 B   ---   --   ---xx   flac  0.5120  phil2021-10-13d02t04.flac
    16:40.08      176418860 B   ---   --   ---xx   flac  0.4999  phil2021-10-13d03t01.flac
     0:44.69        7923932 B   ---   --   ---xx   flac  0.4067  phil2021-10-13d03t02.flac
     5:30.50       58329644 B   ---   --   ---xx   flac  0.4851  phil2021-10-13d03t03.flac
     1:10.26       12409196 B   ---   --   ---xx   flac  0.3701  phil2021-10-13d03t04.flac
     5:13.00       55213244 B   ---   --   ---xx   flac  0.5423  phil2021-10-13d03t05.flac
     4:54.33       51939260 B   ---   --   ---xx   flac  0.4659  phil2021-10-13d03t06.flac
    11:07.73      117830540 B   ---   --   ---xx   flac  0.4487  phil2021-10-13d03t07.flac
     0:26.46        4694636 B   ---   --   ---xx   flac  0.4950  phil2021-10-13d03t08.flac
     9:51.30      104323004 B   ---   --   ---xx   flac  0.5603  phil2021-10-13d03t09.flac
     2:09.58       22892060 B   ---   --   ---xx   flac  0.4127  phil2021-10-13d03t10.flac
     6:45.15       71477324 B   ---   --   ---xx   flac  0.5228  phil2021-10-13d03t11.flac
     2:01.68       21504380 B   ---   --   ---xx   flac  0.5080  phil2021-10-13d03t12.flac
   168:35.04     1784296420 B                            0.5107  (23 files)






More information about the bittorrent mailing list