[bittorrent] Phil Lesh And Friends The Capitol Theatre Port Chester, New York 10/12/2021 (Z-Man Schoeps CCM4V'S FOB)

Automated Mailer noreply-bt.e at etree.org
Wed Oct 13 06:58:03 UTC 2021


Band:           Phil Lesh & Friends
Torrent Name:   Phil Lesh And Friends The Capitol Theatre Port Chester, New York 10/12/2021 (Z-Man Schoeps CCM4V'S FOB)
Uploaded by:    zmanatl
DB Link:        
Details:        http://bt.etree.org/details.php?id=614139

Contact the seeder at http://db.etree.org/zmanatl

If the link to this show does not work, it was probably removed for
being non-trade-friendly.

Description / text file:
-------------------------
Phil Lesh And Friends
The Capitol Theatre
Port Chester, New York
10/12/2021

Source: Schoeps CCM4V'S>Lunatec V2>Sound Devices 722 (24/44.1)
FOB/OTS/DRFC/KFC/ZFC/AARP 35' From Stage, 8 1/2' High
DSP: Sound Devices 722>Sound Forge 10.0>CD Wave>flac(16)
ID3 Tagged In Foobar 2000
Recorded By: Z-Man
Seeded By: Z-Man
A Team Dirty South Recording

Disc I 1st Set

01 Jam 
02 St. Stephen >
03 The Eleven >
04 Eyes Of The World >
05 Mountains Of The Moon
06 Arcadian Driftwood 
07 Wayfaring Stranger
08 Angel Band  

Disc II 2nd Set

01 Uncle John's Band 
02 No More Do I 
03 Bird Song

Disc III 2nd Set Con't

01 The Wheel >
02 Terrapin Station >
03 Morning Dew
Encore:
04 Phil Donor Rap
05 Sunshine Of Your Love

Phil Lesh - Bass And Vocals
Warren Haynes - Guitar And Vocals
Jimmy Herring - Guitar
Rob Barraco - Keyboards And Vocals
John Molo - Drums

phil2021-10-12d01t01.flac:688d5dd2bbb7130b70da3bff2447032a
phil2021-10-12d01t02.flac:10405202b243b5c621bd7499bfb5685e
phil2021-10-12d01t03.flac:4adfb2a9a50b0f014cf698d675a1cf25
phil2021-10-12d01t04.flac:05398fb142f989a0f7ff160431931065
phil2021-10-12d01t05.flac:b9ea636ad2ecad2f3b3cbe60646014e1
phil2021-10-12d01t06.flac:6dc44c3d2cb3df4569ec37d05f96cdf1
phil2021-10-12d01t07.flac:fe0710376b836f8c7ef4d58aedb71899
phil2021-10-12d01t08.flac:9be2c88b7d0d58c3a83bcf58c6c411f7
phil2021-10-12d02t01.flac:e9695c72878404bda86cb2cd7ae4e46c
phil2021-10-12d02t02.flac:30b4897963d611dd9310f3d3bad536cb
phil2021-10-12d02t03.flac:d72222668dc1399263e3f282e5bfd97d
phil2021-10-12d03t01.flac:e6579bd21181276ff4061bb56bf38c4c
phil2021-10-12d03t02.flac:b6c9838e96da2fbfa8ff2ba3e196fe0b
phil2021-10-12d03t03.flac:66e883dbf8ded5769ccb64d98dfaa29d
phil2021-10-12d03t04.flac:7c2d64992c16563313e1188a769f8d16
phil2021-10-12d03t05.flac:d5f2d2258c5449f23ec90a990e9104e2

 length     expanded size    cdr  WAVE problems  fmt   ratio  filename
     2:21.36       24957116 B   ---   --   ---xx   flac  0.4438  phil2021-10-12d01t01.flac
    14:53.53      157649900 B   ---   --   ---xx   flac  0.5645  phil2021-10-12d01t02.flac
     7:34.50       80203244 B   ---   --   ---xx   flac  0.5908  phil2021-10-12d01t03.flac
    13:07.55      138956204 B   ---   --   ---xx   flac  0.5542  phil2021-10-12d01t04.flac
     8:32.29       90385052 B   ---   --   ---xx   flac  0.5158  phil2021-10-12d01t05.flac
     8:24.36       88990316 B   ---   --   ---xx   flac  0.5473  phil2021-10-12d01t06.flac
     6:22.47       67495388 B   ---   --   ---xx   flac  0.5149  phil2021-10-12d01t07.flac
     4:29.35       47533964 B   ---   --   ---xx   flac  0.5048  phil2021-10-12d01t08.flac
    23:37.59      250097612 B   ---   --   ---xx   flac  0.5272  phil2021-10-12d02t01.flac
    10:18.39      109106972 B   ---   --   ---xx   flac  0.5063  phil2021-10-12d02t02.flac
    13:09.02      139184348 B   ---   --   ---xx   flac  0.5214  phil2021-10-12d02t03.flac
    10:41.30      113143004 B   ---   --   ---xx   flac  0.5385  phil2021-10-12d03t01.flac
    14:23.58      152369660 B   ---   --   ---xx   flac  0.5430  phil2021-10-12d03t02.flac
    11:27.33      121264460 B   ---   --   ---xx   flac  0.5057  phil2021-10-12d03t03.flac
     3:36.30       38173004 B   ---   --   ---xx   flac  0.4101  phil2021-10-12d03t04.flac
    10:34.10      111861164 B   ---   --   ---xx   flac  0.5189  phil2021-10-12d03t05.flac
   163:35.02     1731371408 B                            0.5296  (16 files)





More information about the bittorrent mailing list