[bittorrent] Phil Lesh And Friends The Capitol Theatre Port Chester, New York 10/11/2021 (Z-Man Schoeps CCM4V'S FOB)

Automated Mailer noreply-bt.e at etree.org
Tue Oct 12 14:08:01 UTC 2021


Band:           Phil Lesh & Friends
Torrent Name:   Phil Lesh And Friends The Capitol Theatre Port Chester, New York 10/11/2021 (Z-Man Schoeps CCM4V'S FOB)
Uploaded by:    zmanatl
DB Link:        
Details:        http://bt.etree.org/details.php?id=614135

Contact the seeder at http://db.etree.org/zmanatl

If the link to this show does not work, it was probably removed for
being non-trade-friendly.

Description / text file:
-------------------------
Phil Lesh And Friends
The Capitol Theatre
Port Chester, New York
10/11/2021

Source: Schoeps CCM4V'S>Lunatec V2>Sound Devices 722 (24/44.1)
FOB/OTS/DRFC/KFC/ZFC/AARP 35' From Stage, 8 1/2' High
DSP: Sound Devices 722>Sound Forge 10.0>CD Wave>flac(16)
ID3 Tagged In Foobar 2000
Recorded By: Z-Man
Seeded By: Z-Man
A Team Dirty South Recording

Disc I 1st Set

01 Greeting From Phil
02 Jam >
03 Mason's Children
04 Doin' That Rag
05 Low Spark Of High-Heeled Boys >
06 So What >
07 Low Spark Of High-Heeled Boys 
08 She Said She Said
09 Night Of A 1000 Stars

Disc II 2nd Set

01 Shakedown Street >
02 Viola Lee Blues > 
03 New Speedway Boogie

Disc III 2nd Set Con't

01 Broken Arrow
02 Cryptical Envelopment >
03 Wharf Rat >
04 The Other One >
05 I Know You Rider
Encore:
06 Peter Shapiro Presents Phil With Belated Birthday Cake
07 Happy Birthday Phil/Phil Donor Rap
08 The Real Thing

Phil Lesh - Bass And Vocals
Warren Haynes - Guitar And Vocals
Jimmy Herring - Guitar
Rob Barraco - Keyboards And Vocals
John Molo - Drums

phil2021-10-11d01t01.flac:92ae4f8685fb012113324a0291fe8361
phil2021-10-11d01t02.flac:53076bce54d42436e39277688f158798
phil2021-10-11d01t03.flac:85d17a5cc831a82b355eb86ebdefa980
phil2021-10-11d01t04.flac:0b01930575672d79a593d9cca84ab747
phil2021-10-11d01t05.flac:130371e0ba2c90228e41baea23cb3ddf
phil2021-10-11d01t06.flac:7e79eaa3fcabf6aa4214a42e04dfe50d
phil2021-10-11d01t07.flac:17e93f0ad3f86e45c45afaaeba812b31
phil2021-10-11d01t08.flac:e8d6f02db1018c26a88904a6a10a1bab
phil2021-10-11d01t09.flac:bad70d56511517edef975c2fcb55a1ec
phil2021-10-11d02t01.flac:7ae6f229a68591ef2b0350323dd6ab12
phil2021-10-11d02t02.flac:dca701f9cfcda139e023d5f258fa04b7
phil2021-10-11d02t03.flac:f0b6cb31dfcc0f5ee6f7a12943edbd0e
phil2021-10-11d03t01 (8).flac:46f11281a9d32a1b545259245a74e9f1
phil2021-10-11d03t01.flac:52e17911f8e75baf84c70f486dec50d3
phil2021-10-11d03t02.flac:7f228895e3368f0018c5d5444c311ebb
phil2021-10-11d03t03.flac:471394ebd0b11e55b74841220e2819d2
phil2021-10-11d03t04.flac:36f388a38221fb96e30cf90e8f24c1fc
phil2021-10-11d03t05.flac:1651440ca759587e30451bdfbe49398d
phil2021-10-11d03t06.flac:2d6ef94dc59f483573adad67f4fa0a84
phil2021-10-11d03t07.flac:d3c309c90d71a94350fe4f2f0ce0da1a

  length     expanded size    cdr  WAVE problems  fmt   ratio  filename
     0:29.72        5284988 B   ---   --   ---xx   flac  0.4907  phil2021-10-11d01t01.flac
     2:57.65       31375724 B   ---   --   ---xx   flac  0.4459  phil2021-10-11d01t02.flac
    16:03.65      170026124 B   ---   --   ---xx   flac  0.5556  phil2021-10-11d01t03.flac
    11:57.70      126643484 B   ---   --   ---xx   flac  0.5200  phil2021-10-11d01t04.flac
    13:00.69      137754332 B   ---   --   ---xx   flac  0.5219  phil2021-10-11d01t05.flac
     8:06.23       85784540 B   ---   --   ---xx   flac  0.5071  phil2021-10-11d01t06.flac
     7:44.46       81957836 B   ---   --   ---xx   flac  0.5307  phil2021-10-11d01t07.flac
     6:46.49       71733692 B   ---   --   ---xx   flac  0.5666  phil2021-10-11d01t08.flac
     8:03.54       85328252 B   ---   --   ---xx   flac  0.5559  phil2021-10-11d01t09.flac
    22:49.40      241585724 B   ---   --   ---xx   flac  0.5173  phil2021-10-11d02t01.flac
    13:40.61      144791516 B   ---   --   ---xx   flac  0.5479  phil2021-10-11d02t02.flac
     8:57.57       94860908 B   ---   --   ---xx   flac  0.5188  phil2021-10-11d02t03.flac
     6:48.58       72107660 B   ---   --   ---xx   flac  0.4888  phil2021-10-11d03t01 (8).flac
    10:41.23      113126540 B   ---   --   ---xx   flac  0.5079  phil2021-10-11d03t01.flac
     7:23.04       78154652 B   ---   --   ---xx   flac  0.5246  phil2021-10-11d03t02.flac
     7:45.27       82089548 B   ---   --   ---xx   flac  0.5103  phil2021-10-11d03t03.flac
     6:09.46       65199836 B   ---   --   ---xx   flac  0.5749  phil2021-10-11d03t04.flac
     8:03.22       85252988 B   ---   --   ---xx   flac  0.5785  phil2021-10-11d03t05.flac
     1:08.67       12152828 B   ---   --   ---xx   flac  0.5024  phil2021-10-11d03t06.flac
     3:01.47       32038988 B   ---   --   ---xx   flac  0.4506  phil2021-10-11d03t07.flac
   171:41.65     1817250160 B                            0.5284  (20 files)






More information about the bittorrent mailing list