[bittorrent] Widespread Panic The Moody Theatre Austin, Texas 10/10/2021 (Z-Man Schoeps CCM4V'S FOB)

Automated Mailer noreply-bt.e at etree.org
Mon Oct 11 07:08:21 UTC 2021


Band:           Widespread Panic
Torrent Name:   Widespread Panic The Moody Theatre Austin, Texas 10/10/2021 (Z-Man Schoeps CCM4V'S FOB)
Uploaded by:    zmanatl
DB Link:        
Details:        http://bt.etree.org/details.php?id=614124

Contact the seeder at http://db.etree.org/zmanatl

If the link to this show does not work, it was probably removed for
being non-trade-friendly.

Description / text file:
-------------------------
Widespread Panic
The Moody Theatre
Austin, Texas
10/10/2021

Source: Schoeps CCM4V'S>Lunatec V2>Sound Devices 722 (24/44.1)
FOB/DFC/KFC/ZFC/AARP Clamped To The Rail At The Front Of The Mezzanine
DSP: Sound Devices 722>Sound Forge 10.0>CD Wave>flac(16)
ID3 Tagged In Foobar 2000
Recorded By: Z-Man
Seeded By: Z-Man
A Team Dirty South Recording

Thank You Korey And Kip For My Ticket!!!

Disc I 1st Set

01 Goin' Out West >
02 Rock
03 Down
04 Heroes 
05 Holden Oversoul >
06 Stop/Go >
07 Walkin'
08 Tush >
09 Conrad The Caterpilar

Disc II 2nd Set

01 A Of D >
02 Pigeons
03 Can't Get high 
04 Trashy 
05 Action Man 
06 Tall Boy 

Disc III 2nd Set Con't

01 Drivin' Song >
02 No Sugar Tonight >
03 New Mother Nature >
04  Drivin' Song >
05 Tie Your Shoes >
06 Run Like Hell Jam >
07 Protein Drink >
08 Sewing Machine
Encore:
09 JB Banter
10 Sharon >
11 Heaven >
12 Blackout Blues

John "JB" Bell - Guitar And Vocals
Jimmy Herring - Guitar
Dave Schools - Bass And Vocals
John "JoJo" Hermann - Keyboards And Vocals
Domingo "Sunny" Ortiz - Percussion
Duane Trucks - Drums

wsp2021-10-10d01t01.flac:0c7e7556452c2d0dd331c08dfc38e44a
wsp2021-10-10d01t02.flac:1c6ab2fde004ce3e2524d8eaa6e1f1ec
wsp2021-10-10d01t03.flac:8a20e260bf3ba68177a8173f2d4d5ea6
wsp2021-10-10d01t04.flac:d856a95a479244c3245048d52491110d
wsp2021-10-10d01t05.flac:c53f1cecdc4d477c60f1af0364fc1204
wsp2021-10-10d01t06.flac:4ce93b879747da460537ede3d85cb217
wsp2021-10-10d01t07.flac:87d8faadd61bac76a2c97d0e43168d26
wsp2021-10-10d01t08.flac:2e69c6bcdb4da0a22c4823fa399d7e48
wsp2021-10-10d01t09.flac:4050455fc42cdc250a9a9dbf235b729d
wsp2021-10-10d02t01.flac:59f31ee3a77e9decec5047a9bef2ea33
wsp2021-10-10d02t02.flac:417c989d02f73572d931bd237bfee029
wsp2021-10-10d02t03.flac:d5bc072bce09f1c255b1950be27f785e
wsp2021-10-10d02t04.flac:8a641bf84177e400681bc769de58b484
wsp2021-10-10d02t05.flac:37d7959debb6f66b5443b3aa8fee904a
wsp2021-10-10d02t06.flac:808b262879fbf78c8d3a9abf8f41c86e
wsp2021-10-10d03t01.flac:cca002e63b9a8a03dfc3e517b62c06dd
wsp2021-10-10d03t02.flac:83a7678a3f9fcfc1538e4f78796000c6
wsp2021-10-10d03t03.flac:e83b8ba19ffc3b57f6d4485011eba215
wsp2021-10-10d03t04.flac:7cae19a895e85e55c86df7ccee745513
wsp2021-10-10d03t05.flac:78d03c344013621efe019310833e1cb2
wsp2021-10-10d03t06.flac:dd42c24b623913f9fa8ea30483997006
wsp2021-10-10d03t07.flac:55fbccac322a59dc5949543b7c8e4cba
wsp2021-10-10d03t08.flac:1ac86b5314ead61dc8a6183dee209ec6
wsp2021-10-10d03t09.flac:84f1629c1b140a40c9cd948420dbcdf9
wsp2021-10-10d03t10.flac:fb7d3f8636371cf49213d50f6ca5d985
wsp2021-10-10d03t11.flac:8fe62554ca818c36ed8558dedd00be66
wsp2021-10-10d03t12.flac:fa689d1302cf13ae04d637abfa7cc1e4

 length     expanded size    cdr  WAVE problems  fmt   ratio  filename
     9:46.05      103382204 B   ---   --   ---xx   flac  0.4677  wsp2021-10-10d01t01.flac
     7:41.37       81407468 B   ---   --   ---xx   flac  0.4686  wsp2021-10-10d01t02.flac
     5:47.31       61283756 B   ---   --   ---xx   flac  0.4719  wsp2021-10-10d01t03.flac
     5:48.23       61441340 B   ---   --   ---xx   flac  0.4866  wsp2021-10-10d01t04.flac
     7:31.03       79563500 B   ---   --   ---xx   flac  0.4874  wsp2021-10-10d01t05.flac
     9:05.57       96272108 B   ---   --   ---xx   flac  0.4513  wsp2021-10-10d01t06.flac
     5:33.58       58877660 B   ---   --   ---xx   flac  0.4919  wsp2021-10-10d01t07.flac
     2:14.40       23731724 B   ---   --   ---xx   flac  0.5316  wsp2021-10-10d01t08.flac
    10:24.32      110148908 B   ---   --   ---xx   flac  0.5110  wsp2021-10-10d01t09.flac
     4:47.12       50655068 B   ---   --   ---xx   flac  0.4547  wsp2021-10-10d02t01.flac
    10:01.29      106084652 B   ---   --   ---xx   flac  0.4950  wsp2021-10-10d02t02.flac
     4:16.23       45212540 B   ---   --   ---xx   flac  0.5160  wsp2021-10-10d02t03.flac
    11:56.48      126415340 B   ---   --   ---xx   flac  0.4609  wsp2021-10-10d02t04.flac
     4:46.02       50455148 B   ---   --   ---xx   flac  0.5371  wsp2021-10-10d02t05.flac
     7:29.51       79323596 B   ---   --   ---xx   flac  0.5049  wsp2021-10-10d02t06.flac
     5:31.56       58520156 B   ---   --   ---xx   flac  0.4666  wsp2021-10-10d03t01.flac
     2:37.08       27713660 B   ---   --   ---xx   flac  0.4804  wsp2021-10-10d03t02.flac
     4:36.70       48851084 B   ---   --   ---xx   flac  0.4779  wsp2021-10-10d03t03.flac
     2:39.00       28047644 B   ---   --   ---xx   flac  0.4939  wsp2021-10-10d03t04.flac
     6:10.70       65432684 B   ---   --   ---xx   flac  0.5065  wsp2021-10-10d03t05.flac
     6:01.23       63734540 B   ---   --   ---xx   flac  0.4848  wsp2021-10-10d03t06.flac
     4:01.60       42653564 B   ---   --   ---xx   flac  0.4793  wsp2021-10-10d03t07.flac
     7:14.38       76647020 B   ---   --   ---xx   flac  0.5518  wsp2021-10-10d03t08.flac
     1:16.36       13491116 B   ---   --   ---xx   flac  0.4014  wsp2021-10-10d03t09.flac
    13:57.08      147665660 B   ---   --   ---xx   flac  0.4731  wsp2021-10-10d03t10.flac
     5:33.62       58887068 B   ---   --   ---xx   flac  0.4248  wsp2021-10-10d03t11.flac
     7:48.04       82564652 B   ---   --   ---xx   flac  0.5043  wsp2021-10-10d03t12.flac
   174:38.61     1848463860 B                            0.4848  (27 files)







More information about the bittorrent mailing list