[bittorrent] Widespread Panic The Moody Theatre Austin, Texas 10/9/2021 (Z-Man Schoeps CCM4V'S FOB)

Automated Mailer noreply-bt.e at etree.org
Sun Oct 10 07:45:33 UTC 2021


Band:           Widespread Panic
Torrent Name:   Widespread Panic The Moody Theatre Austin, Texas 10/9/2021 (Z-Man Schoeps CCM4V'S FOB)
Uploaded by:    zmanatl
DB Link:        
Details:        http://bt.etree.org/details.php?id=614114

Contact the seeder at http://db.etree.org/zmanatl

If the link to this show does not work, it was probably removed for
being non-trade-friendly.

Description / text file:
-------------------------
Widespread Panic
The Moody Theatre
Austin, Texas
10/9/2021

Source: Schoeps CCM4V'S>Lunatec V2>Sound Devices 722 (24/44.1)
FOB/DFC/KFC/ZFC/AARP Clamped To The Rail At The Front Of The Mezzanine
DSP: Sound Devices 722>Sound Forge 10.0>CD Wave>flac(16)
ID3 Tagged In Foobar 2000
Recorded By: Z-Man
Seeded By: Z-Man
A Team Dirty South Recording

Thank You Korey And Kip For My Ticket!!!

Disc I 1st Set

01 One-Arm Steve >
02 Pleas
03 Wonderin' 
04 Thought Sausage 
05 Papa Johnny Road 
06 That Thang >
07 Stop Breaking Down 
08 For What It's Worth
09 Mercy >
10 Love Tractor

Disc II 2nd Set

01 *Chainsaw City >
02 Worry 
03 Last Straw >
04 Ride Me High >
05 You Wreck Me

Disc III 2nd Set Con't

01 Papa's Home >
02 Drum Solo >
03 Papa's Home >
04 Honkey Red >
05 Hatfield 
06 Lawyers, Guns, And Money
Encore:
07 Little Kin >
08 Makes Sense To Me 
09 End Of The Show

* With Steve Lopez On Percussion

John "JB" Bell - Guitar And Vocals
Jimmy Herring - Guitar
Dave Schools - Bass And Vocals
John "JoJo" Hermann - Keyboards And Vocals
Domingo "Sunny" Ortiz - Percussion
Duane Trucks - Drums

wsp2021-10-09d01t01.flac:2dc6af9100b271238159ab41ca217446
wsp2021-10-09d01t02.flac:a12234e5f7d38e2e95286319513725da
wsp2021-10-09d01t03.flac:bee1cc73b07c6b404a825e1d5c55e444
wsp2021-10-09d01t04.flac:280edeb61e084d9f8a7f1b17f59cbeb8
wsp2021-10-09d01t05.flac:fa62aed80b455d0dabe9f28082756f61
wsp2021-10-09d01t06.flac:9a73db583224496e50fa1ce2f4196fb1
wsp2021-10-09d01t07.flac:d74f5698429f66db77ea9ee30fd61102
wsp2021-10-09d01t08.flac:6638bd1e2743037baf54f8fb7040076a
wsp2021-10-09d01t09.flac:0278c474d36fb2c942fed5c90170dd0f
wsp2021-10-09d01t10.flac:685bc274f48123a832bc89f6b063e002
wsp2021-10-09d02t01.flac:576986e5435895fd385d59234386f6a0
wsp2021-10-09d02t02.flac:28fd798c4d5a400767a11b5de1452122
wsp2021-10-09d02t03.flac:267786afcccdde5c1e0eb990aef27dac
wsp2021-10-09d02t04.flac:83b06976596e1d693bf8da5dd01013c0
wsp2021-10-09d02t05.flac:a7f883d4428d2fe9a2b4dd92d08dab4b
wsp2021-10-09d03t01.flac:aae8c64a26e653aef3f6875633bc4ffa
wsp2021-10-09d03t02.flac:4caa9c98d90de1aa1cad20efecf24eef
wsp2021-10-09d03t03.flac:2351f4defe45081f5dc034539c845602
wsp2021-10-09d03t04.flac:11cddc358ee4bf57e3f5446959a6608f
wsp2021-10-09d03t05.flac:5764a91d844753277f3c6931e1c62c37
wsp2021-10-09d03t06.flac:f3cb11bd6c2fc180f54c278931c69286
wsp2021-10-09d03t07.flac:ce34c9e383659817b8325f6f192fa05c
wsp2021-10-09d03t08.flac:1ef1ccbfa3fe4fb741a3aea0f27389b4
wsp2021-10-09d03t09.flac:1e789dd715d00fc68d97360e80f761e3

 length     expanded size    cdr  WAVE problems  fmt   ratio  filename
     3:47.34       40122812 B   ---   --   ---xx   flac  0.5002  wsp2021-10-09d01t01.flac
     5:39.44       59903132 B   ---   --   ---xx   flac  0.5087  wsp2021-10-09d01t02.flac
     4:42.73       49916540 B   ---   --   ---xx   flac  0.5095  wsp2021-10-09d01t03.flac
     6:59.06       73925756 B   ---   --   ---xx   flac  0.5188  wsp2021-10-09d01t04.flac
     6:52.22       72728588 B   ---   --   ---xx   flac  0.5008  wsp2021-10-09d01t05.flac
    11:56.31      126375356 B   ---   --   ---xx   flac  0.4876  wsp2021-10-09d01t06.flac
     6:58.22       73786988 B   ---   --   ---xx   flac  0.5071  wsp2021-10-09d01t07.flac
     7:01.67       74422028 B   ---   --   ---xx   flac  0.4929  wsp2021-10-09d01t08.flac
     9:41.61      102631916 B   ---   --   ---xx   flac  0.4855  wsp2021-10-09d01t09.flac
     6:45.04       71451452 B   ---   --   ---xx   flac  0.5461  wsp2021-10-09d01t10.flac
     9:01.29       95500652 B   ---   --   ---xx   flac  0.5231  wsp2021-10-09d02t01.flac
     9:17.49       98370092 B   ---   --   ---xx   flac  0.5354  wsp2021-10-09d02t02.flac
     9:59.68      105823580 B   ---   --   ---xx   flac  0.4952  wsp2021-10-09d02t03.flac
    12:26.45      131700284 B   ---   --   ---xx   flac  0.5182  wsp2021-10-09d02t04.flac
     3:39.55       38761004 B   ---   --   ---xx   flac  0.5587  wsp2021-10-09d02t05.flac
     8:49.45       93421484 B   ---   --   ---xx   flac  0.4952  wsp2021-10-09d03t01.flac
     4:17.26       45395996 B   ---   --   ---xx   flac  0.4805  wsp2021-10-09d03t02.flac
     4:55.23       52092140 B   ---   --   ---xx   flac  0.4641  wsp2021-10-09d03t03.flac
     8:31.71       90307436 B   ---   --   ---xx   flac  0.4820  wsp2021-10-09d03t04.flac
    10:50.44      114763532 B   ---   --   ---xx   flac  0.4603  wsp2021-10-09d03t05.flac
     3:21.69       35618732 B   ---   --   ---xx   flac  0.5129  wsp2021-10-09d03t06.flac
     7:01.28       74330300 B   ---   --   ---xx   flac  0.4914  wsp2021-10-09d03t07.flac
     5:16.35       55824764 B   ---   --   ---xx   flac  0.4969  wsp2021-10-09d03t08.flac
     5:30.27       58275548 B   ---   --   ---xx   flac  0.4010  wsp2021-10-09d03t09.flac
   173:25.03     1835450112 B                            0.4984  (24 files)





More information about the bittorrent mailing list