[bittorrent] Widespread Panic The Moody Theatre Austin, Texas 10/8/2021 (Z-Man Schoeps CCM4V'S FOB)

Automated Mailer noreply-bt.e at etree.org
Sat Oct 9 07:08:18 UTC 2021


Band:           Widespread Panic
Torrent Name:   Widespread Panic The Moody Theatre Austin, Texas 10/8/2021 (Z-Man Schoeps CCM4V'S FOB)
Uploaded by:    zmanatl
DB Link:        
Details:        http://bt.etree.org/details.php?id=614112

Contact the seeder at http://db.etree.org/zmanatl

If the link to this show does not work, it was probably removed for
being non-trade-friendly.

Description / text file:
-------------------------
Widespread Panic
The Moody Theatre
Austin, Texas
10/8/2021

Source: Schoeps CCM4V'S>Lunatec V2>Sound Devices 722 (24/44.1)
FOB/DFC/KFC/ZFC/AARP 45' From Stage, 7 1/2' High
DSP: Sound Devices 722>Sound Forge 10.0>CD Wave>flac(16)
ID3 Tagged In Foobar 2000
Recorded By: Z-Man
Seeded By: Z-Man
A Team Dirty South Recording

Thank You Korey And Kip For My Ticket!!!

Disc I 1st Set

01 Climb To Safety 
02 Diner >
03 Space Wrangler 
04 Sell Sell >
05 Old Neighborhood 
06 Steven's Cat 
07 Bear's Gone Fishin' >
08 Christmas Katie >
09 Radio Child

Disc II 2nd Set

01 From The Cradle >
02 Good People >
03 Greta >
04 Jam >
05 Up All Night 
06 Ramble >
07 *Jam >
08 Who Do You Belong To?
09 Machine >
10 Barstools And Dreamers >
11 Travelin' Light >
12 Barstools And Dreamers >
13 Machine Reprise >
14 North

Disc III Encore

01 Dave Banter
02 Nobody's Loss 
03 I'm So Glad

* With Makes Sense To Me Tease

John "JB" Bell - Guitar And Vocals
Jimmy Herring - Guitar
Dave Schools - Bass And Vocals
John "JoJo" Hermann - Keyboards And Vocals
Domingo "Sunny" Ortiz - Percussion
Duane Trucks - Drums

wsp2021-10-08d01t01.flac:d1f4fb34994f83068a70b5ed435f7a05
wsp2021-10-08d01t02.flac:b07622530def7c90f75795d4fc2824fc
wsp2021-10-08d01t03.flac:fdd7f821058a487daa1a9c0a12319e8a
wsp2021-10-08d01t04.flac:d9c6cc09e936ea0d91bad4536840dbad
wsp2021-10-08d01t05.flac:19d854faee4c1e7d207f44ecc6cd6b94
wsp2021-10-08d01t06.flac:4bc47710fd89d97941e9f8310150af17
wsp2021-10-08d01t07.flac:b3e9550bf6919f38ed57f3c0580354f3
wsp2021-10-08d01t08.flac:bc96413174c401cafdcaad75dff3774d
wsp2021-10-08d01t09.flac:976b81d1c3118d00864e49090cb1bfa9
wsp2021-10-08d02t01.flac:035f6c5cd41438029274bf57b6ea2d0b
wsp2021-10-08d02t02.flac:4be67411b5cdfd7a220b126450e5cb1e
wsp2021-10-08d02t03.flac:c03ffaf7633fcb378ce50b1f138eecea
wsp2021-10-08d02t04.flac:b216a2fdef2edaf5d1af723a578d96c8
wsp2021-10-08d02t05.flac:c0ca58ef09369033a0090da312743356
wsp2021-10-08d02t06.flac:4d5c77dd1b498a3316dd26e08b58f4c2
wsp2021-10-08d02t07.flac:738f2132c2378e6dadb86b4b44483617
wsp2021-10-08d02t08.flac:2590e4ac519a0de27f6d738eec5bc363
wsp2021-10-08d02t09.flac:d18c4f5c6c13a2315d706921229c0c31
wsp2021-10-08d02t10.flac:17c857a66bb6681442ab595102f7a9fb
wsp2021-10-08d02t11.flac:120d7bbbd2d2f671c58a61c400994101
wsp2021-10-08d02t12.flac:7957872c6db077bc28911e65ee9af534
wsp2021-10-08d02t13.flac:f022784cc01f374292e0ff7ba168a471
wsp2021-10-08d02t14.flac:7c61f25599ca781c6293c05e24f399aa
wsp2021-10-08d03t01.flac:5a7588f22e333aac27a0b883cddece40
wsp2021-10-08d03t02.flac:8aa8179ea6a1bc241742322cc68f2e9f
wsp2021-10-08d03t03.flac:7c596da1a56be74312a1c0dcb6b3ac5d

  length     expanded size    cdr  WAVE problems  fmt   ratio  filename
     6:54.06       73043756 B   ---   --   ---xx   flac  0.5035  wsp2021-10-08d01t01.flac
    16:14.25      171872444 B   ---   --   ---xx   flac  0.5014  wsp2021-10-08d01t02.flac
    10:28.66      110934476 B   ---   --   ---xx   flac  0.5076  wsp2021-10-08d01t03.flac
     7:24.69       78483932 B   ---   --   ---xx   flac  0.5271  wsp2021-10-08d01t04.flac
     7:35.31       80334956 B   ---   --   ---xx   flac  0.5249  wsp2021-10-08d01t05.flac
     5:30.11       58237916 B   ---   --   ---xx   flac  0.5336  wsp2021-10-08d01t06.flac
     9:15.15       97937324 B   ---   --   ---xx   flac  0.5190  wsp2021-10-08d01t07.flac
     6:51.65       72653324 B   ---   --   ---xx   flac  0.4864  wsp2021-10-08d01t08.flac
     6:32.53       69273500 B   ---   --   ---xx   flac  0.5434  wsp2021-10-08d01t09.flac
     4:54.49       51976892 B   ---   --   ---xx   flac  0.4959  wsp2021-10-08d02t01.flac
     5:56.42       62897228 B   ---   --   ---xx   flac  0.5294  wsp2021-10-08d02t02.flac
     7:56.61       84109916 B   ---   --   ---xx   flac  0.5274  wsp2021-10-08d02t03.flac
     1:57.44       20742332 B   ---   --   ---xx   flac  0.4948  wsp2021-10-08d02t04.flac
     7:45.58       82162460 B   ---   --   ---xx   flac  0.5070  wsp2021-10-08d02t05.flac
     4:16.27       45221948 B   ---   --   ---xx   flac  0.5139  wsp2021-10-08d02t06.flac
     3:26.70       36503084 B   ---   --   ---xx   flac  0.4634  wsp2021-10-08d02t07.flac
     6:04.27       64273148 B   ---   --   ---xx   flac  0.4883  wsp2021-10-08d02t08.flac
     3:36.52       38224748 B   ---   --   ---xx   flac  0.5470  wsp2021-10-08d02t09.flac
     4:56.32       52289708 B   ---   --   ---xx   flac  0.5184  wsp2021-10-08d02t10.flac
     5:42.16       60366476 B   ---   --   ---xx   flac  0.5223  wsp2021-10-08d02t11.flac
     8:56.15       94585724 B   ---   --   ---xx   flac  0.5287  wsp2021-10-08d02t12.flac
     0:24.07        4250108 B   ---   --   ---xx   flac  0.5660  wsp2021-10-08d02t13.flac
     8:51.70       93833084 B   ---   --   ---xx   flac  0.5652  wsp2021-10-08d02t14.flac
     1:34.26       16642796 B   ---   --   ---xx   flac  0.3846  wsp2021-10-08d03t01.flac
     6:19.72       67024988 B   ---   --   ---xx   flac  0.4365  wsp2021-10-08d03t02.flac
     9:55.67      105115628 B   ---   --   ---xx   flac  0.5357  wsp2021-10-08d03t03.flac
   169:24.26     1792991896 B                            0.5140  (26 files)






More information about the bittorrent mailing list