[bittorrent] The Grassmen St. Elmo's Brewery Austin, Texas 10/7/2021 (Z-Man Schoeps CCM4V'S FOB)

Automated Mailer noreply-bt.e at etree.org
Fri Oct 8 06:17:18 UTC 2021


Band:           Other
Torrent Name:   The Grassmen St. Elmo's Brewery Austin, Texas 10/7/2021 (Z-Man Schoeps CCM4V'S FOB)
Uploaded by:    zmanatl
DB Link:        
Details:        http://bt.etree.org/details.php?id=614108

Contact the seeder at http://db.etree.org/zmanatl

If the link to this show does not work, it was probably removed for
being non-trade-friendly.

Description / text file:
-------------------------
The Grassmen
St. Elmo's Brewery
Austin, Texas
10/7/2021

Source: Schoeps CCM4V'S>Lunatec V2>Sound Devices 722 (24/44.1)
FOB/DFC/KFC/ZFC/AARP 6' From Stage, 6 1/2' High
DSP: Sound Devices 722>Sound Forge 10.0>CD Wave>flac(16)
ID3 Tagged In Foobar 2000
Recorded By: Z-Man
Seeded By: Z-Man
A Team Dirty South Recording

Disc I 1st Set

01 Instrumental
02 Sunny Side Of The Mountain >
03 I Love You Though your Still To Be 
04 All Along The Watchtowe
05 Kentucky Waltze
06 Gonna Lose My Blues Tonight
07 Payday
08 Back Within My Arms 
09 On My Way Back To The Old Home
10 Love Come Home

Disc II 2nd Set

01 Kym Banter/Band Introductions
02 Why Don't You Tell Me 
03 Love Is Like A Moutain Railroad
04 Everything's Broken 
05 Cash On The Barrelhead
06 Band Introductions
07 She Left Me Standin' On The Moutain
08 Your Love Is Like A Flower 
Encore:
09 Kym Banter
10 The Ties That Bind 

Dom Fisher - Stand-Up Bass And Vocals
Kym Warner - Mandolin And Vocals
Chris Cage - Guitar And Vocals
Warren Hood - Fiddle

thegrassmen2021-10-07d01t01.flac:b7d20712e27aeecb4c9127cc47288cec
thegrassmen2021-10-07d01t02.flac:cb634893c6e62d220c5547b7443cddf5
thegrassmen2021-10-07d01t03.flac:99fcff9396888f7f58e047755583c070
thegrassmen2021-10-07d01t04.flac:f36105d0f500b0663629a3c35e8e70f8
thegrassmen2021-10-07d01t05.flac:7ebbed74b13ed93e506ca3c17aaf34e7
thegrassmen2021-10-07d01t06.flac:d5c29d57d6d7f07df2f533252f0a2764
thegrassmen2021-10-07d01t07.flac:797846bb8c60e8c1a9334ad2aad5d6f3
thegrassmen2021-10-07d01t08.flac:589fa92d8dd80034b32bf298ee346554
thegrassmen2021-10-07d01t09.flac:f7b574ec1c2e872d4a414b5a94f1025c
thegrassmen2021-10-07d01t10.flac:c121c24bbbdfdcd98809f5432ac25ce4
thegrassmen2021-10-07d02t01.flac:93350d7bf626fc5fb9b88eaefce3a323
thegrassmen2021-10-07d02t02.flac:4492708aa1b8c071837fe858c58ba230
thegrassmen2021-10-07d02t03.flac:a1059098bf2374e6c7f282767ac1dfc4
thegrassmen2021-10-07d02t04.flac:a810e4bba2fc6a6bb9d300699dba50f1
thegrassmen2021-10-07d02t05.flac:4a0be06062c1a7842a35c9d7cc7ced30
thegrassmen2021-10-07d02t06.flac:55cab7207ada7f69c12e5b67db623f34
thegrassmen2021-10-07d02t07.flac:49953ad06e75dbef8e465f779909aa0c
thegrassmen2021-10-07d02t08.flac:9195307ce48a7a7879ec5307e201c84b
thegrassmen2021-10-07d02t09.flac:21cf69586798c750f70df2570cbe2f96
thegrassmen2021-10-07d02t10.flac:4faf4074c9fc020c63099b174a735d82

 length     expanded size    cdr  WAVE problems  fmt   ratio  filename
     6:00.49       63619292 B   ---   --   ---xx   flac  0.5025  thegrassmen2021-10-07d01t01.flac
     4:32.09       48002012 B   ---   --   ---xx   flac  0.5388  thegrassmen2021-10-07d01t02.flac
     3:58.00       41983244 B   ---   --   ---xx   flac  0.5204  thegrassmen2021-10-07d01t03.flac
     7:02.59       74579612 B   ---   --   ---xx   flac  0.5531  thegrassmen2021-10-07d01t04.flac
     3:35.17       37966028 B   ---   --   ---xx   flac  0.4643  thegrassmen2021-10-07d01t05.flac
     4:20.10       45887564 B   ---   --   ---xx   flac  0.5260  thegrassmen2021-10-07d01t06.flac
     4:28.71       47442236 B   ---   --   ---xx   flac  0.5102  thegrassmen2021-10-07d01t07.flac
     4:09.40       44017724 B   ---   --   ---xx   flac  0.4864  thegrassmen2021-10-07d01t08.flac
     4:17.16       45372476 B   ---   --   ---xx   flac  0.4909  thegrassmen2021-10-07d01t09.flac
     5:25.62       57475868 B   ---   --   ---xx   flac  0.5397  thegrassmen2021-10-07d01t10.flac
     0:54.56        9657356 B   ---   --   ---xx   flac  0.3717  thegrassmen2021-10-07d02t01.flac
     4:32.08       47999660 B   ---   --   ---xx   flac  0.4612  thegrassmen2021-10-07d02t02.flac
     4:09.35       44005964 B   ---   --   ---xx   flac  0.5401  thegrassmen2021-10-07d02t03.flac
     4:36.62       48832268 B   ---   --   ---xx   flac  0.5493  thegrassmen2021-10-07d02t04.flac
     3:11.73       33864140 B   ---   --   ---xx   flac  0.5726  thegrassmen2021-10-07d02t05.flac
     0:40.19        7100732 B   ---   --   ---xx   flac  0.4093  thegrassmen2021-10-07d02t06.flac
     4:04.09       43062812 B   ---   --   ---xx   flac  0.4932  thegrassmen2021-10-07d02t07.flac
     3:35.49       38041292 B   ---   --   ---xx   flac  0.5341  thegrassmen2021-10-07d02t08.flac
     0:51.05        9008204 B   ---   --   ---xx   flac  0.4133  thegrassmen2021-10-07d02t09.flac
     3:45.20       39737084 B   ---   --   ---xx   flac  0.5175  thegrassmen2021-10-07d02t10.flac
    78:11.69      827655568 B                            0.5148  (20 files)





More information about the bittorrent mailing list