[bittorrent] Chip Jones Solo Acoustic The Suburban Tap Marietta, Georgia 10/5/2021 (Z-Man Schoeps CCM4V'S FOB)

Automated Mailer noreply-bt.e at etree.org
Wed Oct 6 21:13:45 UTC 2021


Band:           Other
Torrent Name:   Chip Jones Solo Acoustic The Suburban Tap Marietta, Georgia 10/5/2021 (Z-Man Schoeps CCM4V'S FOB)
Uploaded by:    zmanatl
DB Link:        
Details:        http://bt.etree.org/details.php?id=614090

Contact the seeder at http://db.etree.org/zmanatl

If the link to this show does not work, it was probably removed for
being non-trade-friendly.

Description / text file:
-------------------------
Chip Jones Solo Acoustic
The Suburban Tap
Marietta, Georgia
10/5/2021 

Source: Schoeps CCM4V'S>Lunatec V2>Sound Devices 722 (24/44.1)
FOB/DFC/KFC/ZFC/AARP 6' From Stage, 6 1/2' High
DSP: Sound Devices 722>Sound Forge 10.0>CD Wave>flac(16)
ID3 Tagged In Foobar 2000
Recorded By: Z-Man
Seeded By: Z-Man
A Team Dirty South Recording

Disc I 

01 Black Orpheus
02 Right Time
03 Planets
04 Night Draws Near
05 If It Takes A Lifetime
06 Fee 
07 Something Else

chip2021-10-05d01t01.flac:e610ad53c176b9d69a4d053d66af8829
chip2021-10-05d01t02.flac:8f5cb21e20264c407b8dbe6e33901a7e
chip2021-10-05d01t03.flac:0f0572690808466301ad087c8b021ce1
chip2021-10-05d01t04.flac:e3583460342883eca4f8fea3db15965b
chip2021-10-05d01t05.flac:201e8515c6546868e50dc51e9b003c9e
chip2021-10-05d01t06.flac:24f3b54a7401bc1b5484ae00138f2ae1
chip2021-10-05d01t07.flac:813675e4c63791af90e33473adc7f7be

  length     expanded size    cdr  WAVE problems  fmt   ratio  filename
     5:51.54       62043452 B   ---   --   ---xx   flac  0.4466  chip2021-10-05d01t01.flac
     5:55.48       62734940 B   ---   --   ---xx   flac  0.4985  chip2021-10-05d01t02.flac
     6:44.49       71380892 B   ---   --   ---xx   flac  0.5393  chip2021-10-05d01t03.flac
     6:06.01       64564796 B   ---   --   ---xx   flac  0.4990  chip2021-10-05d01t04.flac
     4:36.02       48691148 B   ---   --   ---xx   flac  0.5089  chip2021-10-05d01t05.flac
     5:49.16       61601276 B   ---   --   ---xx   flac  0.5306  chip2021-10-05d01t06.flac
     3:51.31       40821356 B   ---   --   ---xx   flac  0.5166  chip2021-10-05d01t07.flac
    38:54.51      411837860 B                            0.5056  (7 files)






More information about the bittorrent mailing list