[bittorrent] Swami Gone Bananas Swami After Dark Live The Drawing Room Tucker, Georgia 10/3/2021 (Z-Man Schoeps CCM4V'S FOB)

Automated Mailer noreply-bt.e at etree.org
Wed Oct 6 17:39:50 UTC 2021


Band:           Other
Torrent Name:   Swami Gone Bananas  Swami After Dark Live The Drawing Room Tucker, Georgia 10/3/2021 (Z-Man Schoeps CCM4V'S FOB)
Uploaded by:    zmanatl
DB Link:        
Details:        http://bt.etree.org/details.php?id=614089

Contact the seeder at http://db.etree.org/zmanatl

If the link to this show does not work, it was probably removed for
being non-trade-friendly.

Description / text file:
-------------------------
Swami Gone Bananas 
Swami After Dark Live
The Drawing Room
Tucker, Georgia
10/3/2021

Source: Schoeps CCM4V'S>Lunatec V2>Sound Devices 722 (24/44.1)
FOB/DFC/KFC/ZFC/AARP 5' From Stage, 5' High
DSP: Sound Devices 722>Sound Forge 10.0>CD Wave>flac(16)
ID3 Tagged In Foobar 2000
Recorded By: Z-Man
Seeded By: Z-Man
A Team Dirty South Recording

Disc I

01 Greeting By Swami
02 Can't Find My Way Home 
03 Gonna Bring It On Home To You >
04 Bold As Love
05 Sweet Mystery Of Life
06 Thrift Store Nightmare
07 Shopping For Clothes 
08 *Your Move
09 I Shall Be Released

Disc II

01 *Paint It Black
02 Your Cash Ain't Nothin' But Trash
03 I Want To Go To The Meeting
04 Sponsor Announcements/Banter
05 I Know Where You Are
06 The Tennessee Stud
07 New Speedway Boogie
08 Dear Doctor >
09 2000 Light Years Fro Home

* With Give Peace A Chance Lyrics

Michael "Swami" Schulman - Acoustic Guitar, Mandolin, And Vocals
Richard Hurt - Guitar, Harmonica, And Vocals
Dave "Deuce And A Quarter" Roth - Bass, Melodica, And Vocals

swami2021-10-03d01t01.flac:7a418dfa9796ae3a949a468632767817
swami2021-10-03d01t02.flac:90743793ae2953509417086ebf85a751
swami2021-10-03d01t03.flac:a618ca7c5ed2d82f8da152ab5eb8b400
swami2021-10-03d01t04.flac:e92b846f33ef745e1d4a0900fbee748c
swami2021-10-03d01t05.flac:72d3f79830e86949db317a4fa9623b6b
swami2021-10-03d01t06.flac:11e46b84f4722215d5d27ebd205e7b84
swami2021-10-03d01t07.flac:a270d9bf409b76d24e8f067ba9b1ea8e
swami2021-10-03d01t08.flac:d8205d2595b352ca416495962646f130
swami2021-10-03d01t09.flac:96f3c0f61fc7bae9433f6f94a5ab8e3a
swami2021-10-03d02t01.flac:88f51fdda55f8c663f76339224391ed3
swami2021-10-03d02t02.flac:856c4002f67d7838699ac589344b7632
swami2021-10-03d02t03.flac:b632371b3223046bc344b18b62987c97
swami2021-10-03d02t04.flac:6a03cd56edaf914be0ae1ba78fb676ee
swami2021-10-03d02t05.flac:9e5add8b751f250f804e78b944aa62d7
swami2021-10-03d02t06.flac:95407ebbe51ec226591d9ac70694c9f8
swami2021-10-03d02t07.flac:1122af37edd4db5fb0608903a0c067da
swami2021-10-03d02t08.flac:32ae4d4a8e334c41fac0474027fed685
swami2021-10-03d02t09.flac:e9bbb20779b292918d6fe215561e321f

  length     expanded size    cdr  WAVE problems  fmt   ratio  filename
     1:07.38       11908220 B   ---   --   ---xx   flac  0.3192  swami2021-10-03d01t01.flac
     5:33.27       58804748 B   ---   --   ---xx   flac  0.3946  swami2021-10-03d01t02.flac
     7:19.14       77472572 B   ---   --   ---xx   flac  0.3871  swami2021-10-03d01t03.flac
     4:19.43       45788780 B   ---   --   ---xx   flac  0.4074  swami2021-10-03d01t04.flac
     6:17.10       66526364 B   ---   --   ---xx   flac  0.3871  swami2021-10-03d01t05.flac
     5:44.21       60731036 B   ---   --   ---xx   flac  0.4258  swami2021-10-03d01t06.flac
     5:59.04       63337052 B   ---   --   ---xx   flac  0.3510  swami2021-10-03d01t07.flac
     4:48.56       50934956 B   ---   --   ---xx   flac  0.4241  swami2021-10-03d01t08.flac
     5:47.06       61224956 B   ---   --   ---xx   flac  0.4139  swami2021-10-03d01t09.flac
     5:52.24       62149292 B   ---   --   ---xx   flac  0.4099  swami2021-10-03d02t01.flac
     4:57.07       52407308 B   ---   --   ---xx   flac  0.4404  swami2021-10-03d02t02.flac
     6:19.69       67017932 B   ---   --   ---xx   flac  0.4270  swami2021-10-03d02t03.flac
     2:01.42       21443228 B   ---   --   ---xx   flac  0.3326  swami2021-10-03d02t04.flac
     3:56.22       41682188 B   ---   --   ---xx   flac  0.4127  swami2021-10-03d02t05.flac
     6:01.49       63795692 B   ---   --   ---xx   flac  0.4202  swami2021-10-03d02t06.flac
     6:01.41       63776876 B   ---   --   ---xx   flac  0.4448  swami2021-10-03d02t07.flac
     3:34.17       37789628 B   ---   --   ---xx   flac  0.4398  swami2021-10-03d02t08.flac
     6:12.00       65620844 B   ---   --   ---xx   flac  0.4897  swami2021-10-03d02t09.flac
    91:52.40      972411672 B                            0.4133  (18 files)



More information about the bittorrent mailing list