[bittorrent] The Z-Man's Jam Diane And John Rabson's House Roswell, Georgia 10/4/2021 (Z-Man Schoeps CCM4V'S FOB)

Automated Mailer noreply-bt.e at etree.org
Tue Oct 5 23:41:02 UTC 2021


Band:           Other
Torrent Name:   The Z-Man's Jam  Diane And John Rabson's House Roswell, Georgia 10/4/2021 (Z-Man Schoeps CCM4V'S FOB)
Uploaded by:    zmanatl
DB Link:        
Details:        http://bt.etree.org/details.php?id=614076

Contact the seeder at http://db.etree.org/zmanatl

If the link to this show does not work, it was probably removed for
being non-trade-friendly.

Description / text file:
-------------------------
The Z-Man's Jam 
Diane And John Rabson's House
Roswell, Georgia
10/4/2021 

Source: Schoeps CCM4V'S>Lunatec V2>Sound Devices 722 (24/44.1)
FOB/DFC/KFC/ZFC/AARP 10' From Stage, 6 1/2' High
DSP: Sound Devices 722>Sound Forge 10.0>CD Wave>flac(16)
ID3 Tagged In Foobar 2000
Recorded By: Z-Man
Seeded By: Z-Man
A Team Dirty South Recording

Disc I 1st Set

01 Greeting And Introduction By The Z-Man
02 Cols Rain And Snow 
03 Feelin' Alright
04 After Midnight 
05 One More Cup Of Coffee
06 *Ramble On Rose
07 Scarlet Begonias
08 *Franklin's Tower >
09 *Deal

Disc II 2nd Set

01 China-Cat Sunflower >
02 *#I Know You Rider
03 Cross-Eyed And Painless 
04 Tangled Up In Blue
05 @Dancin' In The Streets 
06 Morning Dew >
07 *^Goin' Down The Road Feelin' Bad

* With The Z-Man On Vocals 
# With Cousin Eddie On Percussion
@ With Bathtub Gin Teasews
^ With Cross-Eyed And Painless Lyrics

Michael May - Guitar And Vocals
Jack Boyanton - Guitar And Vocals
Diane Rabson - Keyboards And Vocals
Johnny Barrett - Bass And Vocals
Ryan Marcus - Drums

thezmans2021-10-04d01t01.flac:9cfd8d67ba8214c00503711e3c757a58
thezmans2021-10-04d01t02.flac:15141e4b6f9793b2ec6f67849279ad81
thezmans2021-10-04d01t03.flac:249543e16565a259bec40dbf3dbeac34
thezmans2021-10-04d01t04.flac:4d06add558e82de9365ad93c3d23cb2c
thezmans2021-10-04d01t05.flac:fcdb8a02f28824d2dc4b3a130e76dde6
thezmans2021-10-04d01t06.flac:bbbaee15a1c36a328059fe2bb21584ab
thezmans2021-10-04d01t07.flac:5f1ba219c583057a31f83875f97371a2
thezmans2021-10-04d01t08.flac:bf2664edfb9b94d8615041be7e366730
thezmans2021-10-04d01t09.flac:ce330bfd33d021a775fdd684c97dd158
thezmans2021-10-04d02t01.flac:5761ad9d19cef8c7c5904b589d77998a
thezmans2021-10-04d02t02.flac:99a8009f18254ef22a97bc39e5cc2466
thezmans2021-10-04d02t03.flac:5087d0439f89bb77a11d9f25255aed18
thezmans2021-10-04d02t04.flac:5539393d6ea8bc77576e74e7b4191fa5
thezmans2021-10-04d02t05.flac:2777b95244482fef3c53315d02ab323a
thezmans2021-10-04d02t06.flac:54b1a29f2f42ae05ead0e103427773e8
thezmans2021-10-04d02t07.flac:1d4b62acf94941f1af526e97086dfc92

  length     expanded size    cdr  WAVE problems  fmt   ratio  filename
     0:40.03        7063100 B   ---   --   ---xx   flac  0.3479  thezmans2021-10-04d01t01.flac
     7:29.08       79222460 B   ---   --   ---xx   flac  0.4992  thezmans2021-10-04d01t02.flac
     9:36.48      101719340 B   ---   --   ---xx   flac  0.5090  thezmans2021-10-04d01t03.flac
     7:41.34       81400412 B   ---   --   ---xx   flac  0.4866  thezmans2021-10-04d01t04.flac
    10:34.47      111948188 B   ---   --   ---xx   flac  0.4399  thezmans2021-10-04d01t05.flac
     6:22.74       67558892 B   ---   --   ---xx   flac  0.4825  thezmans2021-10-04d01t06.flac
     6:09.55       65221004 B   ---   --   ---xx   flac  0.5144  thezmans2021-10-04d01t07.flac
     9:38.09      101980412 B   ---   --   ---xx   flac  0.5207  thezmans2021-10-04d01t08.flac
     8:13.38       87054620 B   ---   --   ---xx   flac  0.5219  thezmans2021-10-04d01t09.flac
     8:36.17       91062428 B   ---   --   ---xx   flac  0.5417  thezmans2021-10-04d02t01.flac
     9:31.54      100851452 B   ---   --   ---xx   flac  0.5100  thezmans2021-10-04d02t02.flac
    13:42.37      145087868 B   ---   --   ---xx   flac  0.5138  thezmans2021-10-04d02t03.flac
     7:53.14       83470172 B   ---   --   ---xx   flac  0.5078  thezmans2021-10-04d02t04.flac
    10:01.59      106155212 B   ---   --   ---xx   flac  0.5237  thezmans2021-10-04d02t05.flac
    10:18.71      109182236 B   ---   --   ---xx   flac  0.5114  thezmans2021-10-04d02t06.flac
     9:20.19       98828732 B   ---   --   ---xx   flac  0.5424  thezmans2021-10-04d02t07.flac
   135:50.62     1437806528 B                            0.5077  (16 files)







More information about the bittorrent mailing list