[bittorrent] Deep Blue Sun Candler Park Fall Fest 2021 Candler Park Atlanta, Georgia 10/3/2021 (Z-Man Schoeps CCM4V'S FOB)

Automated Mailer noreply-bt.e at etree.org
Tue Oct 5 16:47:34 UTC 2021


Band:           Other
Torrent Name:   Deep Blue Sun Candler Park Fall Fest 2021 Candler Park Atlanta, Georgia 10/3/2021 (Z-Man Schoeps CCM4V'S FOB) 
Uploaded by:    zmanatl
DB Link:        
Details:        http://bt.etree.org/details.php?id=614075

Contact the seeder at http://db.etree.org/zmanatl

If the link to this show does not work, it was probably removed for
being non-trade-friendly.

Description / text file:
-------------------------
Deep Blue Sun
Candler Park Fall Fest 2021
Candler Park
Atlanta, Georgia
10/3/2021 

Source: Schoeps CCM4V'S>Lunatec V2>Sound Devices 722 (24/44.1)
FOB/DFC/KFC/ZFC/AARP 40' From Stage, 6' High
DSP: Sound Devices 722>Sound Forge 10.0>CD Wave>flac(16)
ID3 Tagged In Foobar 2000
Recorded By: Z-Man
Seeded By: Z-Man
A Team Dirty South Recording

Disc I 

01 All That You Dream 
02 Afterglow
03 Cold Stove
04 Young Americans >
05 Fly On >
06 Bahama Betty 
07 Come Home With The Band
08 Not Wastin' Time 
09 Prisoner Of Desire 
10 Move On Up
11 Closing By Mark Clement

John Marsh - Keyboards And Vocals
Katie Moore - Guitar And Vocals
Matt Lynn - Guitar
Buddha - Bass And Vocals
Steve Baird - Percussion
Ted Hoyer - Drums

deepblue2021-10-03d01t01.flac:ed5b63f1f10bdd49a8182d41efa6feb9
deepblue2021-10-03d01t02.flac:582f0ddb84ee59adc33080c3c0f763e0
deepblue2021-10-03d01t03.flac:dee3a650908857aba4a69abfaac33fd4
deepblue2021-10-03d01t04.flac:8ff91aecb131be4cd8e4e3f796668ef7
deepblue2021-10-03d01t05.flac:98f050115a68ab177c0b3e8877e4fec8
deepblue2021-10-03d01t06.flac:301c64c348f512c92691662ccf1f7459
deepblue2021-10-03d01t07.flac:33fed76f20a26fe8a2d1f1529ac75240
deepblue2021-10-03d01t08.flac:3aa77ac083ea4b3cd836ce5a47269bf1
deepblue2021-10-03d01t09.flac:8f8d9ccac39d883c3e7d30151c1c1d96
deepblue2021-10-03d01t10.flac:9bce03e5948bd7cba3868eafbc03eb89
deepblue2021-10-03d01t11.flac:23f1ce81cd9aae49b1005887404e1078

 length     expanded size    cdr  WAVE problems  fmt   ratio  filename
     7:16.66       77065676 B   ---   --   ---xx   flac  0.5033  deepblue2021-10-03d01t01.flac
     5:54.35       62527964 B   ---   --   ---xx   flac  0.5524  deepblue2021-10-03d01t02.flac
     5:53.67       62426828 B   ---   --   ---xx   flac  0.5186  deepblue2021-10-03d01t03.flac
     5:08.48       54444140 B   ---   --   ---xx   flac  0.5376  deepblue2021-10-03d01t04.flac
     7:59.60       84636764 B   ---   --   ---xx   flac  0.5426  deepblue2021-10-03d01t05.flac
     7:34.36       80170316 B   ---   --   ---xx   flac  0.5076  deepblue2021-10-03d01t06.flac
     7:20.60       77757164 B   ---   --   ---xx   flac  0.5378  deepblue2021-10-03d01t07.flac
     8:47.18       93005180 B   ---   --   ---xx   flac  0.5081  deepblue2021-10-03d01t08.flac
     8:55.10       94397564 B   ---   --   ---xx   flac  0.5172  deepblue2021-10-03d01t09.flac
     9:09.04       96853052 B   ---   --   ---xx   flac  0.5505  deepblue2021-10-03d01t10.flac
     1:08.34       12075212 B   ---   --   ---xx   flac  0.3732  deepblue2021-10-03d01t11.flac
    75:08.63      795359860 B                            0.5247  (11 files)





More information about the bittorrent mailing list