[bittorrent] Webster Candler Park Fall Fest 2021 Atlanta, Georgia 10/3/2021 (Z-Man Schoeps CCM4V'S FOB)

Automated Mailer noreply-bt.e at etree.org
Mon Oct 4 21:39:01 UTC 2021


Band:           Other
Torrent Name:   Webster Candler Park Fall Fest 2021 Atlanta, Georgia 10/3/2021 (Z-Man Schoeps CCM4V'S FOB)
Uploaded by:    zmanatl
DB Link:        
Details:        http://bt.etree.org/details.php?id=614071

Contact the seeder at http://db.etree.org/zmanatl

If the link to this show does not work, it was probably removed for
being non-trade-friendly.

Description / text file:
-------------------------
Webster
Candler Park Fall Fest 2021
Atlanta, Georgia
10/3/2021 

Source: Schoeps CCM4V'S>Lunatec V2>Sound Devices 722 (24/44.1)
FOB/DFC/KFC/ZFC/AARP 40' From Stage, 6' High
DSP: Sound Devices 722>Sound Forge 10.0>CD Wave>flac(16)
ID3 Tagged In Foobar 2000
Recorded By: Z-Man
Seeded By: Z-Man
A Team Dirty South Recording

Disc I 

01 Introduction By Mark Clement
02 *U S Blues >
03 *Mr. Charlie 
04 *#Althea >
05 *New Minglewood Blues

* With Steve Baird On Percussion
# With Dave "Bongo Dave" Kaiser
@ The Set Was Cut Short Due To Thunder, Lightning, and Pouring Rain

Byron Alterman - Guitar And Vocals
Bill Chanler - Guitar And Vocals
Roger Krystopos - Bass
Diane Robson - Keyboards And Vocals
Jay Smith - Drums

webster2021-10-03d01t01.flac:5d5f1f1069d7b46412c730c0824eadd4
webster2021-10-03d01t02.flac:6e2ff1d7b3505ce84bc07f415f260fa8
webster2021-10-03d01t03.flac:67c36d809d420a999793f2331c3a46e7
webster2021-10-03d01t04.flac:9d9bef732bf6bb6c71d4198e2c04debb
webster2021-10-03d01t05.flac:053864c3c6c0e06a51fdde2980eb2f22

  length     expanded size    cdr  WAVE problems  fmt   ratio  filename
     0:17.62        3144668 B   ---   --   ---xx   flac  0.3840  webster2021-10-03d01t01.flac
     6:33.69       69487532 B   ---   --   ---xx   flac  0.5221  webster2021-10-03d01t02.flac
     4:59.35       52825964 B   ---   --   ---xx   flac  0.5142  webster2021-10-03d01t03.flac
     7:15.43       76835180 B   ---   --   ---xx   flac  0.4922  webster2021-10-03d01t04.flac
     2:15.74       23988092 B   ---   --   ---xx   flac  0.4343  webster2021-10-03d01t05.flac
    21:22.58      226281436 B                            0.4989  (5 files)




More information about the bittorrent mailing list