[bittorrent] The Sundogs Tom Petty Tribute From The Earth Brewing Company Roswell, Georgia 10/2/2021 (Z-Man Schoeps CCM4V'S FOB)

Automated Mailer noreply-bt.e at etree.org
Mon Oct 4 17:33:20 UTC 2021


Band:           Other
Torrent Name:   The Sundogs Tom Petty Tribute From The Earth Brewing Company Roswell, Georgia 10/2/2021 (Z-Man Schoeps CCM4V'S FOB)
Uploaded by:    zmanatl
DB Link:        
Details:        http://bt.etree.org/details.php?id=614069

Contact the seeder at http://db.etree.org/zmanatl

If the link to this show does not work, it was probably removed for
being non-trade-friendly.

Description / text file:
-------------------------
The Sundogs
Tom Petty Tribute
>From The Earth Brewing Company
Roswell, Georgia
10/2/2021 

Source: Schoeps CCM4V'S>Lunatec V2>Sound Devices 722 (24/44.1)
FOB/DFC/KFC/ZFC/AARP 10' From Stage, 6 1/2' High
DSP: Sound Devices 722>Sound Forge 10.0>CD Wave>flac(16)
ID3 Tagged In Foobar 2000
Recorded By: Z-Man
Seeded By: Z-Man
A Team Dirty South Recording

Disc I 

01 You Wreck Me
02 She's A Woman In Love
03 Listen To Her Heart
04 Don't Do Me Like That
05 Even The Losers 
06 Banter
07 Time To Move On
08 Learning To Fly
09 I Won't Back Down
10 Free Fallin'
11 Mary Jane's Last Dance

Disc II 

01 A Face In The Crowd 
02 Refugee
03 Runnin' Down A Dream 
04 *Breakdown
05 The Waiting Is The Hardest Part
06 You Don't Know How It Feels
07 Love Is A Long Road 
08 Southern Accents >
09 Don't Come Around Here No More
10 Thanks/Outro

* With Hit The Road Jack Lyrics

Will Haraway - Bass, Guitar, And Vocals
Lee Haraway - Guitar, Pedal Steel Guitar, And Vocals
Scott Williamns - Guitar And Bass
Kevin Thomas - Keyboards And Vocals
Nelson Nolen - 12 String Guitar, Sitar, Mandolin, And Vocals
Jeff Mills - Drums 

thesundogs2021-10-02d01t01.flac:3468524e18dec33e783075f76ba07238
thesundogs2021-10-02d01t02.flac:ab334d543f21a732f9335edb264edee3
thesundogs2021-10-02d01t03.flac:7bad1a0d6d9ada4335292a49cd147061
thesundogs2021-10-02d01t04.flac:fbfd8d172d2153e4a24bd2ca93d1ffc0
thesundogs2021-10-02d01t05.flac:44b9793b614fd372c51139e5f9e14f6e
thesundogs2021-10-02d01t06.flac:c79f1630a0acbae31be7ed791b154045
thesundogs2021-10-02d01t07.flac:9be958ab4c469cca62b995491542feef
thesundogs2021-10-02d01t08.flac:ad2061ba39225785cc7f2742a56060d9
thesundogs2021-10-02d01t09.flac:f9f9de2a819393613aaaeba8179772bc
thesundogs2021-10-02d01t10.flac:fd385d19b28329426b4a5d7ac1870908
thesundogs2021-10-02d01t11.flac:0c07324dd607f920bc45be61135ca4d4
thesundogs2021-10-02d02t01.flac:8a08a3744c120de65a41e943d4245c56
thesundogs2021-10-02d02t02.flac:d7f902e90dbaf5114db4e4ab3a0c999b
thesundogs2021-10-02d02t03.flac:d93e7d884876857e20e5906606d7398f
thesundogs2021-10-02d02t04.flac:0538db4ce9e191e6fa5a5095bf89152f
thesundogs2021-10-02d02t05.flac:764f6091d48549febb1876226b9095eb
thesundogs2021-10-02d02t06.flac:72e3b30f581626dd5256329cb893c3b9
thesundogs2021-10-02d02t07.flac:483a1939804443d448a839ff43671375
thesundogs2021-10-02d02t08.flac:a11bb2213bd73fee95f7315f66025ccc
thesundogs2021-10-02d02t09.flac:e1b55b0ee7a5b4fade1b60aedefb1765
thesundogs2021-10-02d02t10.flac:bf26a3e9e0821b130e34dafe8d1b7249

  length     expanded size    cdr  WAVE problems  fmt   ratio  filename
     5:03.34       53529212 B   ---   --   ---xx   flac  0.4781  thesundogs2021-10-02d01t01.flac
     5:31.71       58555436 B   ---   --   ---xx   flac  0.4808  thesundogs2021-10-02d01t02.flac
     4:09.44       44027132 B   ---   --   ---xx   flac  0.5077  thesundogs2021-10-02d01t03.flac
     3:57.72       41976188 B   ---   --   ---xx   flac  0.5086  thesundogs2021-10-02d01t04.flac
     4:22.03       46223900 B   ---   --   ---xx   flac  0.5453  thesundogs2021-10-02d01t05.flac
     2:12.43       23385980 B   ---   --   ---xx   flac  0.3310  thesundogs2021-10-02d01t06.flac
     4:23.23       46447340 B   ---   --   ---xx   flac  0.4410  thesundogs2021-10-02d01t07.flac
     6:59.58       74048060 B   ---   --   ---xx   flac  0.4440  thesundogs2021-10-02d01t08.flac
     4:41.17       49608428 B   ---   --   ---xx   flac  0.4404  thesundogs2021-10-02d01t09.flac
     5:52.09       62114012 B   ---   --   ---xx   flac  0.4365  thesundogs2021-10-02d01t10.flac
     6:56.25       73441244 B   ---   --   ---xx   flac  0.5600  thesundogs2021-10-02d01t11.flac
     7:43.19       81717932 B   ---   --   ---xx   flac  0.4670  thesundogs2021-10-02d02t01.flac
     5:33.71       58908236 B   ---   --   ---xx   flac  0.5431  thesundogs2021-10-02d02t02.flac
     4:59.37       52830668 B   ---   --   ---xx   flac  0.5583  thesundogs2021-10-02d02t03.flac
     6:47.38       71884220 B   ---   --   ---xx   flac  0.4792  thesundogs2021-10-02d02t04.flac
     5:37.29       59515052 B   ---   --   ---xx   flac  0.5398  thesundogs2021-10-02d02t05.flac
    13:05.63      138622220 B   ---   --   ---xx   flac  0.4729  thesundogs2021-10-02d02t06.flac
     4:22.24       46273292 B   ---   --   ---xx   flac  0.5417  thesundogs2021-10-02d02t07.flac
     1:24.15       14852924 B   ---   --   ---xx   flac  0.5121  thesundogs2021-10-02d02t08.flac
     8:26.35       89340764 B   ---   --   ---xx   flac  0.5575  thesundogs2021-10-02d02t09.flac
     1:25.06       15008156 B   ---   --   ---xx   flac  0.3791  thesundogs2021-10-02d02t10.flac
   113:35.61     1202310396 B                            0.4939  (21 files)






More information about the bittorrent mailing list