[bittorrent] Phish 2021-08-04 Schoeps CMC6/MK22 - flac16/44

Automated Mailer noreply-bt.e at etree.org
Mon Oct 4 02:56:44 UTC 2021


Band:           Phish
Torrent Name:   Phish 2021-08-04 Schoeps CMC6/MK22 - flac16/44
Uploaded by:    openpath
DB Link:        
Details:        http://bt.etree.org/details.php?id=614067

Contact the seeder at http://db.etree.org/openpath

If the link to this show does not work, it was probably removed for
being non-trade-friendly.

Description / text file:
-------------------------
Phish - August 4, 2021
Ascend Amphithater - Nashville, TN

Recording Info:
Schoeps CMC6/MK22 > Sound Devices 744T (24-bit/96k) > Samplitude Pro X6 Suite > FLAC/16
(3 Discs Audio / 1 DVD FLAC)

Recorded by Charlie Miller and Duncan Oldham
charliemiller87 at earthlink.net
August 11, 2021

Notes:
-- Thanks to Duncan Oldham for the patch (ran these with my MK4's)
-- Mics were setup in Section 201 Row W Seat 14 (front right corner of sound booth)

Set 1:
01 - Tuning
02 - Evolve
03 - Free
04 - Ocelot >
05 - My Sweet One
06 - Cool Amber And Mercury
07 - Halfway To The Moon
08 - Water In The Sky
09 - Theme From The Bottom
10 - Suzy Greenberg
11 - Fluffhead

Set 2:
12 - Tuning
13 - Mr. Completely
14 - Birds Of A Feather
15 - Ghost
16 - Bathtub Gin
17 - Also Sprach Zarathustra
18 - Split Open And Melt

Encore:
19 - Encore Break
20 - Character Zero


SHNTOOL OUTPUT:
    length     expanded size    cdr  WAVE problems  fmt   ratio  filename
     0:54.17        9565628 B   ---   --   ---xx   flac  0.3902  01 Tuning.flac
     6:53.66       73008476 B   ---   --   ---xx   flac  0.5494  02 Evolve.flac
    10:12.41      108053276 B   ---   --   ---xx   flac  0.5509  03 Free.flac
     9:49.54      104026652 B   ---   --   ---xx   flac  0.5341  04 Ocelot.flac
     3:25.72       36331388 B   ---   --   ---xx   flac  0.5095  05 My Sweet One.flac
     7:08.11       75525116 B   ---   --   ---xx   flac  0.5532  06 Cool Amber And Mercury.flac
     7:10.02       75856748 B   ---   --   ---xx   flac  0.5503  07 Halfway To The Moon.flac
     3:26.61       36481916 B   ---   --   ---xx   flac  0.5368  08 Water In The Sky.flac
     8:06.24       85786892 B   ---   --   ---xx   flac  0.5287  09 Theme From The Bottom.flac
     6:07.19       64783532 B   ---   --   ---xx   flac  0.5655  10 Suzy Greenberg.flac
    17:49.07      188588108 B   ---   --   ---xx   flac  0.5327  11 Fluffhead.flac
     0:58.51       10351196 B   ---   --   ---xx   flac  0.3866  12 Tuning.flac
    18:53.65      200014124 B   ---   --   ---xx   flac  0.5517  13 Mr Completely.flac
     6:26.37       68177468 B   ---   --   ---xx   flac  0.5553  14 Birds Of A Feather.flac
    13:18.70      140931884 B   ---   --   ---xx   flac  0.5340  15 Ghost.flac
    12:54.05      136545404 B   ---   --   ---xx   flac  0.5361  16 Bathtub Gin.flac
     7:14.19       76602332 B   ---   --   ---xx   flac  0.5332  17 Also Sprach Zarathustra.flac
    16:34.04      175351052 B   ---   --   ---xx   flac  0.5246  18 Split Open And Melt.flac
     2:34.12       27193868 B   ---   --   ---xx   flac  0.4061  19 Encore Break.flac
     7:53.38       83526620 B   ---   --   ---xx   flac  0.5447  20 Character Zero.flac
   167:52.00     1776701680 B                            0.5364  (20 files)



More information about the bittorrent mailing list