[bittorrent] Frankly Scarlet Cherry Street Vickery Cumnming, Georgia 10/2/2021 (Z-Man Schoeps CCM4V'S FOB)

Automated Mailer noreply-bt.e at etree.org
Sun Oct 3 17:53:55 UTC 2021


Band:           Other
Torrent Name:   Frankly Scarlet Cherry Street Vickery Cumnming, Georgia 10/2/2021 (Z-Man Schoeps CCM4V'S FOB)
Uploaded by:    zmanatl
DB Link:        
Details:        http://bt.etree.org/details.php?id=614051

Contact the seeder at http://db.etree.org/zmanatl

If the link to this show does not work, it was probably removed for
being non-trade-friendly.

Description / text file:
-------------------------
Frankly Scarlet
Cherry Street Vickery
Cumnming, Georgia
10/2/2021 

Source: Schoeps CCM4V'S>Lunatec V2>Sound Devices 722 (24/44.1)
FOB/DFC/KFC/ZFC/AARP 12' From Stage, 6 1/2' High
DSP: Sound Devices 722>Sound Forge 10.0>CD Wave>flac(16)
ID3 Tagged In Foobar 2000
Recorded By: Z-Man
Seeded By: Z-Man
A Team Dirty South Recording

Disc I 1st Set

01 *Deal
02 Greatest Story Ever Told
03 Scarlet Begonias >
04 Fire On The Mountain 
05 Cumberland Blues 
06 Playin' In The Band 
07 The Music Never Stopped
08 Nick Tanner Announcements

Disc II 2nd Set 

01 Feel Like A Stranger 
02 Eyes Of The World >
03 St. Stephen >
04 Truckin' >
05 Terrapin Station
06 Row Jimmy
07 Nick Tanner Does Raffle
08 One More Saturday Night

* They Started A Little Early, Just Before I Arrived, And I Faded This In.

Kurt Tompkins - Drums And Vocals
Cassidy Wall - Guitar And Vocals
Chris "Critter" Rickers - Guitar And Vocals
Jeremy "Jerbo" Foti - Bass
Damian Kapcala - Keyboards And Vocals

frankly2021-10-02d01t01.flac:315f15b9c61a610b90c75b32aa71f3fd
frankly2021-10-02d01t02.flac:e3212ae161e0504f61bef47517a17cde
frankly2021-10-02d01t03.flac:d5025e04aae170ef6260ce05cf60c3ee
frankly2021-10-02d01t04.flac:0d89b65d8a85a2c53882328bbcf9fe94
frankly2021-10-02d01t05.flac:58c908ee18f013f954d55ecd77e5e0d0
frankly2021-10-02d01t06.flac:338f562708159e709c9b14852b79e1ac
frankly2021-10-02d01t07.flac:4cccacef44fdbee7e17ea3b6b114b0e4
frankly2021-10-02d01t08.flac:c5bedb9ba432723a91dd22e3e25ed0dd
frankly2021-10-02d02t01.flac:e4c5fa097fc4e2f20597e6713af3a631
frankly2021-10-02d02t02.flac:abf74aee864a0bc7a8a4bdddf8273644
frankly2021-10-02d02t03.flac:b6837a4b3c3e39534427d59ea96f701d
frankly2021-10-02d02t04.flac:7c8d566fd38454d81013fc738d69ef7c
frankly2021-10-02d02t05.flac:75c69eca671c885ddd833ec4818f4ff6
frankly2021-10-02d02t06.flac:95db435e35acf44d2916ec1db498433c
frankly2021-10-02d02t07.flac:5c3b237d7531f9703a5b05bbe137925d
frankly2021-10-02d02t08.flac:809c233263cc7275c3e16c67b5d9a575

  length     expanded size    cdr  WAVE problems  fmt   ratio  filename
     3:01.09       31949612 B   ---   --   ---xx   flac  0.5388  frankly2021-10-02d01t01.flac
    11:34.53      122546300 B   ---   --   ---xx   flac  0.5270  frankly2021-10-02d01t02.flac
    12:09.16      128633276 B   ---   --   ---xx   flac  0.5308  frankly2021-10-02d01t03.flac
    11:01.35      116682764 B   ---   --   ---xx   flac  0.5185  frankly2021-10-02d01t04.flac
    13:03.53      138245900 B   ---   --   ---xx   flac  0.5289  frankly2021-10-02d01t05.flac
    12:29.31      132196556 B   ---   --   ---xx   flac  0.5691  frankly2021-10-02d01t06.flac
    12:34.56      133137356 B   ---   --   ---xx   flac  0.5793  frankly2021-10-02d01t07.flac
     3:22.45       35738684 B   ---   --   ---xx   flac  0.3351  frankly2021-10-02d01t08.flac
    15:12.14      160909772 B   ---   --   ---xx   flac  0.5385  frankly2021-10-02d02t01.flac
    16:34.00      175341644 B   ---   --   ---xx   flac  0.5192  frankly2021-10-02d02t02.flac
     7:16.44       77013932 B   ---   --   ---xx   flac  0.5256  frankly2021-10-02d02t03.flac
     8:56.33       94628060 B   ---   --   ---xx   flac  0.5518  frankly2021-10-02d02t04.flac
    11:53.23      125827340 B   ---   --   ---xx   flac  0.5015  frankly2021-10-02d02t05.flac
     8:33.18       90535580 B   ---   --   ---xx   flac  0.4809  frankly2021-10-02d02t06.flac
     6:05.46       64494236 B   ---   --   ---xx   flac  0.3169  frankly2021-10-02d02t07.flac
     5:28.33       57936860 B   ---   --   ---xx   flac  0.5583  frankly2021-10-02d02t08.flac
   159:16.59     1685817872 B                            0.5207  (16 files)








More information about the bittorrent mailing list