[bittorrent] The Bitteroots The Society Garden Macon, Georgia 10/1/2021 (Z-Man Schoeps CCM4V'S FOB)

Automated Mailer noreply-bt.e at etree.org
Sun Oct 3 04:36:01 UTC 2021


Band:           Other
Torrent Name:   The Bitteroots The Society Garden Macon, Georgia 10/1/2021 (Z-Man Schoeps CCM4V'S FOB)
Uploaded by:    zmanatl
DB Link:        
Details:        http://bt.etree.org/details.php?id=614048

Contact the seeder at http://db.etree.org/zmanatl

If the link to this show does not work, it was probably removed for
being non-trade-friendly.

Description / text file:
-------------------------
The Bitteroots
The Society Garden
Macon, Georgia
10/1/2021 

Source: Schoeps CCM4V'S>Lunatec V2>Sound Devices 722 (24/44.1)
FOB/DFC/KFC/ZFC/AARP 12' From Stage, 6 1/2' High
DSP: Sound Devices 722>Sound Forge 10.0>CD Wave>flac(16)
ID3 Tagged In Foobar 2000
Recorded By: Z-Man
Seeded By: Z-Man
A Team Dirty South Recording

Disc I 

01 Greeting By Laura
02 Let's Go 
03 Desperate >
04 Try Me Again
05 *Drum Solo >
06 *Try Me Again >
07 *Other Door
08 *October 
09 *Defenseless
10 *I Need To Know 
11 *French Fries 
12 *No Demands

* With Rob Samowski On Percussion
# With 

Bill Taylor - Bass And Vocals
Laura Dees - Vocals
PJ Poellnitz - Guitar And Vocals
Derron Nuhfer - Saxohone
Kevin Leahy - Drums 

thebitteroots2021-10-01d01t01 (12).flac:3719849a34662fb4b223e2fb65334b78
thebitteroots2021-10-01d01t01.flac:e9fbec439a6f4489a0e48802d6c3f155
thebitteroots2021-10-01d01t02.flac:79d2f7b0217146778d998806a57ce96f
thebitteroots2021-10-01d01t03.flac:7cb8c757258d82a495c623fe14e51c38
thebitteroots2021-10-01d01t04.flac:246c97a0bad7cfd14f754090e46d0f04
thebitteroots2021-10-01d01t05.flac:4df399f248ffb691b6e5ee3880073e34
thebitteroots2021-10-01d01t06.flac:cf03720813c23c5b7904f1e36d52b687
thebitteroots2021-10-01d01t07.flac:b0a728aba2bd78260743515ce12b72a2
thebitteroots2021-10-01d01t08.flac:e95f9ae962deae101ef85663100da456
thebitteroots2021-10-01d01t09.flac:49974790651947ea5fc99c21940267dc
thebitteroots2021-10-01d01t10.flac:452c731644a1eedc60d72767ed722a00
thebitteroots2021-10-01d01t11.flac:1018b85b34b5dacaad05e59fa1dc498b

length     expanded size    cdr  WAVE problems  fmt   ratio  filename
     4:14.62       44951468 B   ---   --   ---xx   flac  0.5799  thebitteroots2021-10-01d01t01 (12).flac
     0:37.51        6646796 B   ---   --   ---xx   flac  0.3077  thebitteroots2021-10-01d01t01.flac
     4:18.39       45602972 B   ---   --   ---xx   flac  0.5438  thebitteroots2021-10-01d01t02.flac
     3:42.41       39257276 B   ---   --   ---xx   flac  0.6135  thebitteroots2021-10-01d01t03.flac
     1:54.65       20262524 B   ---   --   ---xx   flac  0.6366  thebitteroots2021-10-01d01t04.flac
     1:10.49       12463292 B   ---   --   ---xx   flac  0.5512  thebitteroots2021-10-01d01t05.flac
     5:29.58       58172060 B   ---   --   ---xx   flac  0.6051  thebitteroots2021-10-01d01t06.flac
     3:41.52       39106748 B   ---   --   ---xx   flac  0.5660  thebitteroots2021-10-01d01t07.flac
     4:03.36       42949916 B   ---   --   ---xx   flac  0.5761  thebitteroots2021-10-01d01t08.flac
     4:40.05       49403804 B   ---   --   ---xx   flac  0.5859  thebitteroots2021-10-01d01t09.flac
     3:24.36       36070316 B   ---   --   ---xx   flac  0.5394  thebitteroots2021-10-01d01t10.flac
     4:11.36       44361116 B   ---   --   ---xx   flac  0.5838  thebitteroots2021-10-01d01t11.flac
    41:30.05      439248288 B                            0.5763  (12 files)








More information about the bittorrent mailing list