[bittorrent] Allgood The Society Garden Macon, Georgia 10/1/2021 (Z-Man Schoeps CCM4V'S FOB)

Automated Mailer noreply-bt.e at etree.org
Sat Oct 2 18:50:36 UTC 2021


Band:           Other
Torrent Name:   Allgood The Society Garden Macon, Georgia 10/1/2021 (Z-Man Schoeps CCM4V'S FOB)
Uploaded by:    zmanatl
DB Link:        
Details:        http://bt.etree.org/details.php?id=614041

Contact the seeder at http://db.etree.org/zmanatl

If the link to this show does not work, it was probably removed for
being non-trade-friendly.

Description / text file:
-------------------------
Allgood
The Society Garden
Macon, Georgia
10/1/2021 

Source: Schoeps CCM4V'S>Lunatec V2>Sound Devices 722 (24/44.1)
FOB/DFC/KFC/ZFC/AARP 20' From Stage, 6 1/2' High
DSP: Sound Devices 722>Sound Forge 10.0>CD Wave>flac(16)
ID3 Tagged In Foobar 2000
Recorded By: Z-Man
Seeded By: Z-Man
A Team Dirty South Recording

Disc I 

01 Call Me >
02 It's Alright
03 Uptown Lounge >
04 Semprini >
05 Ease On My Way >
06 Spiney Norman >
07 For A Little While >
08 Can't Get Next To You 
09 Chore Boy
10 Workin' For MCA
11 Pervect Season

Disc II  

01 Let It Bleed 
02 Time Is Gonna Bring Us Change
03 JBT >
04 Not This Time >
05 Train Song
06 Trilogy >
07 Drum Solo >
08 Trilogy >
09 Drum Solo/Chant >
10 Funky House
Encore:
11 Banter
12 Trudy

Clay Fuller - Guitar And Vocals
Corky Jones - Electric Guitar, Acoustic Guitar, And Vocals
Mike Sain - Bass And Vocals
Neal Lucas - Guitar And Vocals
Chris Queen - Keyboards And Vocals
Kevin Leahy- Drums
Rob Sumowski - Percussion

allgood2021-10-01d01t01.flac:bd1db7c64f0453144f46b4dbbfbb7cb5
allgood2021-10-01d01t02.flac:20372e84aaa111f41982ead0dba2ba48
allgood2021-10-01d01t03.flac:071c415bed33b185869b88c21161b377
allgood2021-10-01d01t04.flac:5276c3a75f221920794f1dd647382f2c
allgood2021-10-01d01t05.flac:5eaa1a3cf72e0968c145cb8499d9b33f
allgood2021-10-01d01t06.flac:cedf3c746897f1f9795184ad30eefb2f
allgood2021-10-01d01t07.flac:4e2910649818ddb8ee3fa3e0c99f775c
allgood2021-10-01d01t08.flac:981a4553d1cde7b269ae93c17147c595
allgood2021-10-01d01t09.flac:cc967770f36f5a2a578a6a3b8bda1c9e
allgood2021-10-01d01t10.flac:122ccf624f86723dae05df959d2e62f2
allgood2021-10-01d01t11.flac:9c560b5e18322294222eb32921e53a4a
allgood2021-10-01d02t01.flac:3ff04d11d30fb11db0e8e3a5c6355554
allgood2021-10-01d02t02.flac:b10aabbe48a1ebccd924cb7a17be8bcf
allgood2021-10-01d02t03.flac:ea289b32025db4c6f963519b34aec070
allgood2021-10-01d02t04.flac:13a56871f912b144b1ae12279fe09062
allgood2021-10-01d02t05.flac:9b1da1a059e9179415afd44495199512
allgood2021-10-01d02t06.flac:6c1dfee816f0088a87dcd3fa7b87bb7a
allgood2021-10-01d02t07.flac:122763346c22f57e6c03a07f39b22b66
allgood2021-10-01d02t08.flac:e098eee7698a86aa2597a92a35bd3853
allgood2021-10-01d02t09.flac:2b4221dbe5db1df667b5da7519ad66e3
allgood2021-10-01d02t10.flac:69b88c4951be46313abab28022bea960
allgood2021-10-01d02t11.flac:b11ce3628c049f56e65c36049b77e97d
allgood2021-10-01d02t12.flac:e1fbc72dd1dbabbe0532a22430c2ef09

length     expanded size    cdr  WAVE problems  fmt   ratio  filename
     7:40.39       81235772 B   ---   --   ---xx   flac  0.5409  allgood2021-10-01d01t01.flac
     5:14.47       55500188 B   ---   --   ---xx   flac  0.5612  allgood2021-10-01d01t02.flac
     4:25.32       46821308 B   ---   --   ---xx   flac  0.6011  allgood2021-10-01d01t03.flac
    13:03.26      138182396 B   ---   --   ---xx   flac  0.5519  allgood2021-10-01d01t04.flac
     3:39.16       38669276 B   ---   --   ---xx   flac  0.5425  allgood2021-10-01d01t05.flac
     6:10.25       65326844 B   ---   --   ---xx   flac  0.5906  allgood2021-10-01d01t06.flac
     4:33.17       48197228 B   ---   --   ---xx   flac  0.5794  allgood2021-10-01d01t07.flac
     3:18.60       35068364 B   ---   --   ---xx   flac  0.5668  allgood2021-10-01d01t08.flac
     4:48.34       50883212 B   ---   --   ---xx   flac  0.5422  allgood2021-10-01d01t09.flac
     4:55.23       52092140 B   ---   --   ---xx   flac  0.5755  allgood2021-10-01d01t10.flac
     4:36.58       48822860 B   ---   --   ---xx   flac  0.5319  allgood2021-10-01d01t11.flac
     5:54.35       62527964 B   ---   --   ---xx   flac  0.5370  allgood2021-10-01d02t01.flac
     4:27.55       47228204 B   ---   --   ---xx   flac  0.5961  allgood2021-10-01d02t02.flac
     8:08.57       86217308 B   ---   --   ---xx   flac  0.5286  allgood2021-10-01d02t03.flac
     4:29.05       47463404 B   ---   --   ---xx   flac  0.5460  allgood2021-10-01d02t04.flac
     5:14.07       55406108 B   ---   --   ---xx   flac  0.4840  allgood2021-10-01d02t05.flac
     8:32.67       90474428 B   ---   --   ---xx   flac  0.5676  allgood2021-10-01d02t06.flac
     0:50.11        8845916 B   ---   --   ---xx   flac  0.5146  allgood2021-10-01d02t07.flac
     1:48.63       19199420 B   ---   --   ---xx   flac  0.5184  allgood2021-10-01d02t08.flac
     1:25.36       15078716 B   ---   --   ---xx   flac  0.5479  allgood2021-10-01d02t09.flac
     4:26.33       47000060 B   ---   --   ---xx   flac  0.5801  allgood2021-10-01d02t10.flac
     1:38.30       17357804 B   ---   --   ---xx   flac  0.3391  allgood2021-10-01d02t11.flac
     5:33.36       58825916 B   ---   --   ---xx   flac  0.5753  allgood2021-10-01d02t12.flac
   114:55.62     1216424836 B                            0.5521  (23 files)







More information about the bittorrent mailing list