[bittorrent] Barry Richman Blues Jam The Rusty Barrel Marietta, Georgia 9/30/2021 (Z-Man Schoeps CCM4V'S FOB)

Automated Mailer noreply-bt.e at etree.org
Fri Oct 1 03:32:26 UTC 2021


Band:           Other
Torrent Name:   Barry Richman Blues Jam The Rusty Barrel Marietta, Georgia 9/30/2021 (Z-Man Schoeps CCM4V'S FOB)
Uploaded by:    zmanatl
DB Link:        
Details:        http://bt.etree.org/details.php?id=614016

Contact the seeder at http://db.etree.org/zmanatl

If the link to this show does not work, it was probably removed for
being non-trade-friendly.

Description / text file:
-------------------------
Barry Richman Blues Jam
The Rusty Barrel
Marietta, Georgia
9/30/2021 

Source: Schoeps CCM4V'S>Lunatec V2>Sound Devices 722 (24/44.1)
FOB/DFC/KFC/ZFC/AARP 6' From Stage, 6 1/2' High
DSP: Sound Devices 722>Sound Forge 10.0>CD Wave>flac(16)
ID3 Tagged In Foobar 2000
Recorded By: Z-Man
Seeded By: Z-Man
A Team Dirty South Recording

Disc I 

01 Greeting By Dana
02 Priscilla
03 Mad World
04 Happy Birthday Courtney
05 ?
06 Them Changes
07 Thanks/Merch/Outro

Barry Richman - Guitar 
Dana McCarthy - Bass And Vocals
Charlie Korch - Drums And Vocals

barry2021-09-30d01t01.flac:7d710f134a8613948bb01897ec4b486b
barry2021-09-30d01t02.flac:d68fc96c68d0416ec6c69182c92c789c
barry2021-09-30d01t03.flac:56d4ecc76f312bc27f05612525f59df7
barry2021-09-30d01t04.flac:6182e365dac65a4b3b5b47fc4f7bd3fb
barry2021-09-30d01t05.flac:346b927748ff83ff134e05def5219169
barry2021-09-30d01t06.flac:5ff7a3a5ef553aea4df89ddddbfa1226
barry2021-09-30d01t07.flac:2e6fc663ad59efedfebf740e3189825c

 length     expanded size    cdr  WAVE problems  fmt   ratio  filename
     0:28.58        5075660 B   ---   --   ---xx   flac  0.3323  barry2021-09-30d01t01.flac
     6:57.38       73648220 B   ---   --   ---xx   flac  0.4656  barry2021-09-30d01t02.flac
     5:59.17       63367628 B   ---   --   ---xx   flac  0.5409  barry2021-09-30d01t03.flac
     1:25.32       15069308 B   ---   --   ---xx   flac  0.3433  barry2021-09-30d01t04.flac
     4:01.34       42592412 B   ---   --   ---xx   flac  0.5169  barry2021-09-30d01t05.flac
     3:55.36       41538716 B   ---   --   ---xx   flac  0.5851  barry2021-09-30d01t06.flac
     1:05.11       11491916 B   ---   --   ---xx   flac  0.3432  barry2021-09-30d01t07.flac
    23:53.01      252783860 B                            0.4972  (7 files)







More information about the bittorrent mailing list