[bittorrent] Phish 2021-08-03 Schoeps CMC6/MK41V - flac16/44

Automated Mailer noreply-bt.e at etree.org
Fri Oct 1 02:47:58 UTC 2021


Band:           Phish
Torrent Name:   Phish 2021-08-03 Schoeps CMC6/MK41V - flac16/44
Uploaded by:    openpath
DB Link:        
Details:        http://bt.etree.org/details.php?id=614013

Contact the seeder at http://db.etree.org/openpath

If the link to this show does not work, it was probably removed for
being non-trade-friendly.

Description / text file:
-------------------------
Phish - August 3, 2021
Ascend Amphithater - Nashville, TN

Recording Info:
Schoeps CMC6/MK41V > Sound Devices 744T (24-bit/96k) > Samplitude Pro X5 Suite > FLAC/16
(3 Discs Audio / 1 DVD FLAC)

Recorded by Charlie Miller and Duncan Oldham
charliemiller87 at earthlink.net
August 4, 2021

Notes:
-- Thanks to Duncan Oldham for the patch (ran these with my MK4's)
-- Mics were setup in Section 201 Row W Seat 14 (front right corner of sound booth)

Set 1:
01 - Tuning
02 - Punch You In The Eye
03 - Strawberry Letter 23
04 - Sample In A Jar
05 - Halley's Comet
06 - Backwards Down The Number Line
07 - Undermind
08 - Divided Sky
09 - Mull
10 - It's Ice
11 - About To Run
12 - The Squirming Coil

Set 2:
13 - Tuning
14 - Party Time
15 - No Men In No Man's Land
16 - Ruby Waves
17 - Possum
18 - When The Circus Comes
19 - Light
20 - You Enjoy Myself

Encore:
21 - Encore Break
22 - Loving Cup


SHNTOOL OUTPUT:
    length     expanded size    cdr  WAVE problems  fmt   ratio  filename
     1:11.04       12533852 B   ---   --   ---xx   flac  0.4482  01 Tuning.flac
     8:32.33       90394460 B   ---   --   ---xx   flac  0.5621  02 Punch You In The Eye.flac
     4:07.17       43610828 B   ---   --   ---xx   flac  0.5703  03 Strawberry Letter 23.flac
     6:16.64       66476972 B   ---   --   ---xx   flac  0.5770  04 Sample In A Jar.flac
     6:07.46       64847036 B   ---   --   ---xx   flac  0.5713  05 Halley's Comet.flac
     8:47.07       92979308 B   ---   --   ---xx   flac  0.5829  06 Backwards Down The Number Line.flac
     7:38.56       80922956 B   ---   --   ---xx   flac  0.5655  07 Undermind.flac
    14:41.05      155420204 B   ---   --   ---xx   flac  0.5465  08 Divided Sky.flac
     7:00.07       74104508 B   ---   --   ---xx   flac  0.5850  09 Mull.flac
     7:10.40       75946124 B   ---   --   ---xx   flac  0.5815  10 It's Ice.flac
     6:51.36       72585116 B   ---   --   ---xx   flac  0.5629  11 About To Run.flac
    10:04.59      106684412 B   ---   --   ---xx   flac  0.5091  12 The Squirming Coil.flac
     0:43.11        7611116 B   ---   --   ---xx   flac  0.4263  13 Tuning.flac
     7:16.67       77068028 B   ---   --   ---xx   flac  0.5696  14 Party Time.flac
    14:26.18      152804780 B   ---   --   ---xx   flac  0.5791  15 No Men In No Man's Land.flac
    10:41.58      113208860 B   ---   --   ---xx   flac  0.5823  16 Ruby Waves.flac
     7:52.57       83394908 B   ---   --   ---xx   flac  0.5803  17 Possum.flac
     5:24.19       57198332 B   ---   --   ---xx   flac  0.5244  18 When The Circus Comes.flac
    13:12.27      139772348 B   ---   --   ---xx   flac  0.5614  19 Light.flac
    18:21.13      194247020 B   ---   --   ---xx   flac  0.5402  20 You Enjoy Mysef.flac
     2:45.24       29162492 B   ---   --   ---xx   flac  0.4327  21 Encore Break.flac
     7:18.41       77359676 B   ---   --   ---xx   flac  0.5807  22 Loving Cup.flac
   176:31.34     1868333336 B                            0.5594  (22 files)



More information about the bittorrent mailing list