[bittorrent] Dyrty Byrds With Eric Carter Tribute To Danny Hutchens The Oriental Theatre Denver, Colorado 6/27/2021 (Schoeps CCM4V'S FOB Z-Man)

Automated Mailer noreply-bt.e at etree.org
Tue Jun 29 05:11:10 UTC 2021


Band:           Other
Torrent Name:   Dyrty Byrds With Eric Carter Tribute To Danny Hutchens The Oriental Theatre Denver, Colorado 6/27/2021 (Schoeps CCM4V'S FOB Z-Man)
Uploaded by:    zmanatl
DB Link:        
Details:        http://bt.etree.org/details.php?id=613056

Contact the seeder at http://db.etree.org/zmanatl

If the link to this show does not work, it was probably removed for
being non-trade-friendly.

Description / text file:
-------------------------
Dyrty Byrds With Eric Carter
Tribute To Danny Hutchens
The Oriental Theatre
Denver, Colorado
6/27/2021

Source: Schoeps CCM4V'S>Lunatec V2>Sound Devices 722 (24/44.1)
FOB/DFC/KFC/ZFC/AARP 18' From Stage, 6 1/2' High
DSP: Sound Devices 722>Sound Forge 10.0>CD Wave>flac(16)
ID3 Tagged In Foobar 2000
Recorded By: Z-Man
Seeded By: Z-Man
A Team Dirty South Recording

Disc I 

01 
02 Take The Highway >
03 If You Hear The Music
04 ? Bloodkin
05 *Black Jacket
06 *Henry Parsons Died
07 *Honeysuckle Blue
08 ?
09 Can't Get Hogh
10 #? >
11 #Makes Sense To Me
12 You Can Leave Your Hat On >
13 From Dusk To Dawn

Disc II 

01 ?
02 ?
03 Here Cpmes The Wind
04 I Had A Pony >
05 Success Yourself
06 ? >
07 Did You Ever Have A Good Time >
08 Rotgot >
09 Mercy Train To Bogart
10 Quarter Tank Of Gasoline >
11 #End Of The Show >
12 #Give Peace A Chance

* With Bill McKay On Keyboards
# With Josh Stack On Acoustic Guitar And Vocals

Eric Carter - Guitar And Vocals
Eric Martinez - Guitar And Vocals
Tori Pater - Acoustic Guitar And Vocals
Mario ? - Bass And Vocals 
C R Gruver - Keyboards And Vocals
Cody Russell - Lap Steel Guitar
Micah Monroe - Vocals And Percussion
Andy Clapp - Drums

dyrtybyrds2021-06-27d01t01.flac:2dcd7f990ec947930fa0bc7c7ebbf09d
dyrtybyrds2021-06-27d01t02.flac:d0f85046fbbbddcd246d2f414bf3e76d
dyrtybyrds2021-06-27d01t03.flac:5f39fede332b19e7eb6e431f3c82e128
dyrtybyrds2021-06-27d01t04.flac:ab9cc8562cca07609e216f6743cd6975
dyrtybyrds2021-06-27d01t05.flac:3d113df3d87792b4f4147659edc5d774
dyrtybyrds2021-06-27d01t06.flac:57773209c0776931eeaa0a6d90ac9dcd
dyrtybyrds2021-06-27d01t07.flac:ea0df99c5314936c07aa444e67fd90e2
dyrtybyrds2021-06-27d01t08.flac:3d1647d4aaf0028852c81a6d8b506bd4
dyrtybyrds2021-06-27d01t09.flac:afd5bce50ecf315b1bda260d5628e611
dyrtybyrds2021-06-27d01t10.flac:6e8648093b7f8c1ffb3ac4507fa63e4f
dyrtybyrds2021-06-27d01t11.flac:820aa6feaf5bdc632ba7269fa770bc53
dyrtybyrds2021-06-27d01t12.flac:3521d2fe496a533d4d86dcabebb9c32e
dyrtybyrds2021-06-27d01t13.flac:0a1777f51403b0f0f7cff93d2e4810e9
dyrtybyrds2021-06-27d02t01.flac:a3512a97083d78c53e1f68e7288c1e07
dyrtybyrds2021-06-27d02t02.flac:ee1c74f9e724181827a6d0bba11168e3
dyrtybyrds2021-06-27d02t03.flac:c7d9ce66ef0862cd157e6b8dab441162
dyrtybyrds2021-06-27d02t04.flac:0bee7acdfe3fb4eed80dcff3d989e3ed
dyrtybyrds2021-06-27d02t05.flac:ef2e0da90089661aa43bd4d4b95e0ad1
dyrtybyrds2021-06-27d02t06.flac:48a9ec0377c6942a331cc73d1bbae04e
dyrtybyrds2021-06-27d02t07.flac:f7aa90145a15d79b240ffe3a99bd48fe
dyrtybyrds2021-06-27d02t08.flac:8c4191f83c9ba494c9bf144a9eed167d
dyrtybyrds2021-06-27d02t09.flac:4f2b1c9c5f4456f712d4a682dad83c95
dyrtybyrds2021-06-27d02t10.flac:d06f125f6525d41a4af8f10d046bde42
dyrtybyrds2021-06-27d02t11.flac:b4e83d925e8cbc88e33c8f3c54795366
dyrtybyrds2021-06-27d02t12.flac:02f5b0a79f7167f1ae38c1a51480e7ba

 length     expanded size    cdr  WAVE problems  fmt   ratio  filename
     1:54.01       20111996 B   ---   --   ---xx   flac  0.5056  dyrtybyrds2021-06-27d01t01.flac
     5:50.60       61881164 B   ---   --   ---xx   flac  0.5024  dyrtybyrds2021-06-27d01t02.flac
     6:21.00       67208444 B   ---   --   ---xx   flac  0.5051  dyrtybyrds2021-06-27d01t03.flac
     7:28.22       79078988 B   ---   --   ---xx   flac  0.4647  dyrtybyrds2021-06-27d01t04.flac
     5:42.02       60333548 B   ---   --   ---xx   flac  0.5040  dyrtybyrds2021-06-27d01t05.flac
     7:44.47       81960188 B   ---   --   ---xx   flac  0.4612  dyrtybyrds2021-06-27d01t06.flac
     7:08.00       75499244 B   ---   --   ---xx   flac  0.4633  dyrtybyrds2021-06-27d01t07.flac
     6:30.52       68918348 B   ---   --   ---xx   flac  0.4744  dyrtybyrds2021-06-27d01t08.flac
     6:23.23       67615340 B   ---   --   ---xx   flac  0.4576  dyrtybyrds2021-06-27d01t09.flac
     5:49.17       61603628 B   ---   --   ---xx   flac  0.4888  dyrtybyrds2021-06-27d01t10.flac
     5:38.63       59771420 B   ---   --   ---xx   flac  0.5072  dyrtybyrds2021-06-27d01t11.flac
     5:29.51       58155596 B   ---   --   ---xx   flac  0.3861  dyrtybyrds2021-06-27d01t12.flac
     6:06.64       64712972 B   ---   --   ---xx   flac  0.4743  dyrtybyrds2021-06-27d01t13.flac
     8:32.14       90349772 B   ---   --   ---xx   flac  0.4246  dyrtybyrds2021-06-27d02t01.flac
     5:14.30       55460204 B   ---   --   ---xx   flac  0.4188  dyrtybyrds2021-06-27d02t02.flac
     4:47.23       50680940 B   ---   --   ---xx   flac  0.5416  dyrtybyrds2021-06-27d02t03.flac
     6:21.08       67227260 B   ---   --   ---xx   flac  0.5343  dyrtybyrds2021-06-27d02t04.flac
     6:19.25       66914444 B   ---   --   ---xx   flac  0.4924  dyrtybyrds2021-06-27d02t05.flac
     4:41.20       49615484 B   ---   --   ---xx   flac  0.4794  dyrtybyrds2021-06-27d02t06.flac
     5:58.61       63294716 B   ---   --   ---xx   flac  0.5000  dyrtybyrds2021-06-27d02t07.flac
     4:20.50       45981644 B   ---   --   ---xx   flac  0.5316  dyrtybyrds2021-06-27d02t08.flac
     4:22.09       46238012 B   ---   --   ---xx   flac  0.5195  dyrtybyrds2021-06-27d02t09.flac
     7:12.67       76362428 B   ---   --   ---xx   flac  0.5082  dyrtybyrds2021-06-27d02t10.flac
     3:57.51       41926796 B   ---   --   ---xx   flac  0.4853  dyrtybyrds2021-06-27d02t11.flac
     2:07.57       22536908 B   ---   --   ---xx   flac  0.4608  dyrtybyrds2021-06-27d02t12.flac
   142:02.67     1503439484 B                            0.4814  (25 files)






More information about the bittorrent mailing list