[bittorrent] Widespread Panic Red Rocks Amphitheatre Morrison, Colorado 6/27/2021 (Schoeps CCM4V'S Z-Man)

Automated Mailer noreply-bt.e at etree.org
Mon Jun 28 16:55:18 UTC 2021


Band:           Widespread Panic
Torrent Name:   Widespread Panic Red Rocks Amphitheatre Morrison, Colorado 6/27/2021 (Schoeps CCM4V'S Z-Man)
Uploaded by:    zmanatl
DB Link:        
Details:        http://bt.etree.org/details.php?id=613046

Contact the seeder at http://db.etree.org/zmanatl

If the link to this show does not work, it was probably removed for
being non-trade-friendly.

Description / text file:
-------------------------
Widespread Panic
Red Rocks Amphitheatre
Morrison, Colorado
6/27/2021

Source: Schoeps CCM4V'S>Lunatec V2>Sound Devices 722 (24/44.1)
BOB/DFC/KFC/ZFC/AARP Clamped To The Rail Above The Soundboard, 6 1/2' High
DSP: Sound Devices 722>Sound Forge 10.0>CD Wave>flac(16)
ID3 Tagged In Foobar 2000
Recorded By: Z-Man
Seeded By: Z-Man
A Team Dirty South Recording

Disc I 1st Set

01 Greeting JB
02 Can't Get High 
03 Wet Trombone Blues >
04 Henry Parsons Died 
05 Who Do You Belong To?
06 Quarter Tank Of Gasoline
07 *Trashy >
08 Makes Sense To Me
09 *Mercy Train To Bogart 
10 Success Yourself >
11 End Of The Show

Disc II 2nd Set

01 JB Banter
02 Postcard >
03 Rock 
04 Pleas >
05 Jam >
06 Honkey Red
07 Protein Drink >
08 Sewing Machine

Disc III 2nd Set Con't

01 Diner >
02 Jamais Vu >
03 Airplane >
04 Take-Off Jam >
05 Red Hot Mama >
06 Fishwater >
07 Drum Solo >
08 Fishwater
Encore:
09 JB Banter
10 Blue Indian 
11 I'm So Glad >
12 Love Tractor

* First Time Played

John "JB" Bell - Guitar And Vocals
Jimmy Herring - Guitar
Dave  Schools - Bass And Vocals 
John "JoJo" Hermann - Keyboards And Vocals
Domingo "Sunny" Ortiz - Percussion
Duane Trucks - Drums

wsp2021-06-27d01t01.flac:6924c184cc08486cc1a1645e45ee1976
wsp2021-06-27d01t02.flac:d732d20d2e9480d671051559e88dee22
wsp2021-06-27d01t03.flac:c6387496f2aabe408849c48ce7b195bf
wsp2021-06-27d01t04.flac:0b2db32ddddf7bf27f609ea59220196c
wsp2021-06-27d01t05.flac:13ba5ff18f74ae38b8687539235a0b97
wsp2021-06-27d01t06.flac:9512e2abf1e1facfa3ad7b216317c736
wsp2021-06-27d01t07.flac:7147cf79c72bbc11ceb01ae380814e0d
wsp2021-06-27d01t08.flac:41f08d804c1cca691230ce3762176afb
wsp2021-06-27d01t09.flac:0dc657d1cc1b5ddb56a653b0221873a2
wsp2021-06-27d01t10.flac:28acba6ac0d5a0e379848ecba05625ae
wsp2021-06-27d01t11.flac:1d5752b94be0e203ca4d48a60ab3ad4e
wsp2021-06-27d02t01.flac:2fba86a51a6aa133ec38d577073225e5
wsp2021-06-27d02t02.flac:3024ba41dd1b0f69c5c30e5f407c4990
wsp2021-06-27d02t03.flac:37be7c19db47cc52eaff8822b801cc82
wsp2021-06-27d02t04.flac:e569d5c66971a15c1f35ae8198b6c6ad
wsp2021-06-27d02t05.flac:8509743fe2cf2a0d95ea37a57378baa2
wsp2021-06-27d02t06.flac:8c13711725e0407b6d96919dc931edd2
wsp2021-06-27d02t07.flac:b9e29e12fbd22960b64139fbd229cefe
wsp2021-06-27d02t08.flac:cf3a7bc2abd59a18e6be551a14173f1a
wsp2021-06-27d03t01.flac:82ac80369f038625039f9320fc1f5744
wsp2021-06-27d03t02.flac:095be91a116e48630899c73e246782c5
wsp2021-06-27d03t03.flac:a677f7b3b6cb91604ae11cd373d97c49
wsp2021-06-27d03t04.flac:320361c6bf7acd46bc2370c7e247dbee
wsp2021-06-27d03t05.flac:fe3e0eaa4b15fdb8192b2dd5274ac8eb
wsp2021-06-27d03t06.flac:19a826dd5ff849d5f69aef2e5641f936
wsp2021-06-27d03t07.flac:163b789e1e1bc3258d57601a1f3c9e13
wsp2021-06-27d03t08.flac:537a324d5659db64fa7a7f720cb440fe
wsp2021-06-27d03t09.flac:8323823b8a9e9fcac01b1b12c9362b53
wsp2021-06-27d03t10.flac:b6da21c611359234d1136a7c1e47a0a8
wsp2021-06-27d03t11.flac:4c50cceaae28f95d68cb3adf0495e426
wsp2021-06-27d03t12.flac:272455120fd6ca7db6866da40591c780

  length     expanded size    cdr  WAVE problems  fmt   ratio  filename
     0:23.14        4090172 B   ---   --   ---xx   flac  0.3094  wsp2021-06-27d01t01.flac
     4:14.25       44864444 B   ---   --   ---xx   flac  0.4606  wsp2021-06-27d01t02.flac
     9:13.60       97690364 B   ---   --   ---xx   flac  0.4363  wsp2021-06-27d01t03.flac
     3:55.10       41477564 B   ---   --   ---xx   flac  0.4637  wsp2021-06-27d01t04.flac
     5:31.49       58503692 B   ---   --   ---xx   flac  0.4161  wsp2021-06-27d01t05.flac
     6:39.20       70430684 B   ---   --   ---xx   flac  0.4015  wsp2021-06-27d01t06.flac
    10:55.65      115694924 B   ---   --   ---xx   flac  0.4113  wsp2021-06-27d01t07.flac
     4:46.27       50513948 B   ---   --   ---xx   flac  0.4555  wsp2021-06-27d01t08.flac
     6:46.05       71630204 B   ---   --   ---xx   flac  0.4041  wsp2021-06-27d01t09.flac
     6:14.06       65987756 B   ---   --   ---xx   flac  0.4505  wsp2021-06-27d01t10.flac
     5:32.25       58623644 B   ---   --   ---xx   flac  0.3893  wsp2021-06-27d01t11.flac
     0:37.35        6609164 B   ---   --   ---xx   flac  0.2654  wsp2021-06-27d02t01.flac
     4:20.50       45981644 B   ---   --   ---xx   flac  0.4406  wsp2021-06-27d02t02.flac
     9:15.40       97996124 B   ---   --   ---xx   flac  0.4233  wsp2021-06-27d02t03.flac
     7:53.46       83545436 B   ---   --   ---xx   flac  0.4178  wsp2021-06-27d02t04.flac
     2:58.62       31545068 B   ---   --   ---xx   flac  0.3261  wsp2021-06-27d02t05.flac
     8:04.41       85474076 B   ---   --   ---xx   flac  0.3910  wsp2021-06-27d02t06.flac
     6:14.49       66088892 B   ---   --   ---xx   flac  0.4232  wsp2021-06-27d02t07.flac
     4:06.15       43429724 B   ---   --   ---xx   flac  0.4617  wsp2021-06-27d02t08.flac
    16:40.44      176503532 B   ---   --   ---xx   flac  0.4103  wsp2021-06-27d03t01.flac
     8:12.37       86875868 B   ---   --   ---xx   flac  0.3426  wsp2021-06-27d03t02.flac
     5:38.03       59630300 B   ---   --   ---xx   flac  0.4019  wsp2021-06-27d03t03.flac
     3:26.64       36488972 B   ---   --   ---xx   flac  0.4531  wsp2021-06-27d03t04.flac
     7:03.17       74657228 B   ---   --   ---xx   flac  0.4632  wsp2021-06-27d03t05.flac
     5:42.10       60352364 B   ---   --   ---xx   flac  0.4756  wsp2021-06-27d03t06.flac
     3:02.10       32128364 B   ---   --   ---xx   flac  0.4477  wsp2021-06-27d03t07.flac
     4:12.46       44561036 B   ---   --   ---xx   flac  0.4764  wsp2021-06-27d03t08.flac
     0:27.36        4847516 B   ---   --   ---xx   flac  0.2859  wsp2021-06-27d03t09.flac
     5:19.43       56372780 B   ---   --   ---xx   flac  0.3527  wsp2021-06-27d03t10.flac
     5:51.35       61998764 B   ---   --   ---xx   flac  0.4616  wsp2021-06-27d03t11.flac
     7:32.33       79810460 B   ---   --   ---xx   flac  0.4758  wsp2021-06-27d03t12.flac
   180:52.47     1914404708 B                            0.4221  (31 files)






More information about the bittorrent mailing list