[bittorrent] Widespread Panic Red Rocks Amphitheatre Morrison, Colorado 6/26/2021 (SchoepsCCM4V'S Z-Man)

Automated Mailer noreply-bt.e at etree.org
Sun Jun 27 09:10:51 UTC 2021


Band:           Widespread Panic
Torrent Name:   Widespread Panic Red Rocks Amphitheatre Morrison, Colorado 6/26/2021 (SchoepsCCM4V'S Z-Man)
Uploaded by:    zmanatl
DB Link:        
Details:        http://bt.etree.org/details.php?id=613036

Contact the seeder at http://db.etree.org/zmanatl

If the link to this show does not work, it was probably removed for
being non-trade-friendly.

Description / text file:
-------------------------
Widespread Panic
Red Rocks Amphitheatre
Morrison, Colorado
6/26/2021

Source: Schoeps CCM4V'S>Lunatec V2>Sound Devices 722 (24/44.1)
BOB/DFC/KFC/ZFC/AARP Clamped To The Rail Above The Soundboard, 6 1/2' High
DSP: Sound Devices 722>Sound Forge 10.0>CD Wave>flac(16)
ID3 Tagged In Foobar 2000
Recorded By: Z-Man
Seeded By: Z-Man
A Team Dirty South Recording

Disc I 1st Set

01 Holden Oversoul
02 Ain't Life Grand 
03 Old Neighborhood 
04 Walkin' 
05 Good Morning Little Schoolgirl >
06 Jaded Tourist >
07 Impossible >
08 Blight > 
09 *Tie Your Shoes 
10 Tall Boy

Disc II 2nd Set

01 Greta >
02 Mercy >
03 Big Wooly Mammoth 
04 Bowl Legged Woman 
05 Drivin' Song >
06 Ride Me High >
07 Drivin' Song >
08 Sweet Leaf >
09 *Four-Cornered Room >
10 Conrad The Caterpillar

Disc III Encore

01 Thanks  
02 Degenerate >
03 Papa's Home

* With Machine Gun Jam

John "JB" Bell - Guitar And Vocals
Jimmy Herring - Guitar
Dave  Schools - Bass And Vocals 
John "JoJo" Hermann - Keyboards And Vocals
Domingo "Sunny" Ortiz - Percussion
Duane Trucks - Drums

wsp2021-06-26d01t01.flac:23e1a9586320b5de98a2b5e872ed330a
wsp2021-06-26d01t02.flac:efcb3c4b0ac1a19ca2931ffb7e8550ea
wsp2021-06-26d01t03.flac:4db4d00272bc9b4720aef3422a29710f
wsp2021-06-26d01t04.flac:8968c7ef8b43c856a59c456bf21742b1
wsp2021-06-26d01t05.flac:12604d22eb449e0f8ad1f8bfb27e0f97
wsp2021-06-26d01t06.flac:8d4e42f0d84adf55fa1756fa2f859705
wsp2021-06-26d01t07.flac:fd940ee2be56254477fe4d951be518b6
wsp2021-06-26d01t08.flac:5d827c84c57d25443992c34a11bf9e07
wsp2021-06-26d01t09.flac:2e3c64e84bc3e203d3898623d7eda314
wsp2021-06-26d01t10.flac:dca3f25d80abc1327fb1c8897e05223b
wsp2021-06-26d02t01.flac:9bd27c984660c7648028255180b10b00
wsp2021-06-26d02t02.flac:424a6b28649ea7a0fe5c92511cb128b7
wsp2021-06-26d02t03.flac:8bfe9e3e008e1068e2ec7d3693cd4881
wsp2021-06-26d02t04.flac:edcffd2dde389cbe741728556c5b48eb
wsp2021-06-26d02t05.flac:c3fa2bda3a2e633f29890bd82a6727b2
wsp2021-06-26d02t06.flac:959bdba351749306ace87bb95764d496
wsp2021-06-26d02t07.flac:a2a8daf0a3cc9527cdbc2d9ca7bc6224
wsp2021-06-26d02t08.flac:54aacd70150c73ffe3e30cd79cc8c0e5
wsp2021-06-26d02t09.flac:e935c47e8f009f64e4dc4f1893c9fa8a
wsp2021-06-26d02t10.flac:ca1aeb27007b856ec4f7f218d911705d
wsp2021-06-26d03t01.flac:570609dc9648d63f2b016c10054a3dbf
wsp2021-06-26d03t02.flac:7668d41fcf6c53cbb9b958d8da94e32c
wsp2021-06-26d03t03.flac:8c7bcb723cdb2ea5992f9ae393f78d9b

 length     expanded size    cdr  WAVE problems  fmt   ratio  filename
     5:16.31       55815356 B   ---   --   ---xx   flac  0.4520  wsp2021-06-26d01t01.flac
     5:16.65       55895324 B   ---   --   ---xx   flac  0.4467  wsp2021-06-26d01t02.flac
     7:56.60       84107564 B   ---   --   ---xx   flac  0.4446  wsp2021-06-26d01t03.flac
     5:08.19       54375932 B   ---   --   ---xx   flac  0.4651  wsp2021-06-26d01t04.flac
     6:29.21       68669036 B   ---   --   ---xx   flac  0.4033  wsp2021-06-26d01t05.flac
     7:10.47       75962588 B   ---   --   ---xx   flac  0.4298  wsp2021-06-26d01t06.flac
     5:01.69       53258732 B   ---   --   ---xx   flac  0.4486  wsp2021-06-26d01t07.flac
     7:25.52       78620348 B   ---   --   ---xx   flac  0.4268  wsp2021-06-26d01t08.flac
     6:17.23       66556940 B   ---   --   ---xx   flac  0.4338  wsp2021-06-26d01t09.flac
     5:09.00       54507644 B   ---   --   ---xx   flac  0.4459  wsp2021-06-26d01t10.flac
    10:50.59      114798812 B   ---   --   ---xx   flac  0.4340  wsp2021-06-26d02t01.flac
     4:45.72       50443388 B   ---   --   ---xx   flac  0.3890  wsp2021-06-26d02t02.flac
     8:24.15       88940924 B   ---   --   ---xx   flac  0.4494  wsp2021-06-26d02t03.flac
     7:45.16       82063676 B   ---   --   ---xx   flac  0.4339  wsp2021-06-26d02t04.flac
     4:29.07       47468108 B   ---   --   ---xx   flac  0.4290  wsp2021-06-26d02t05.flac
    14:45.67      156271628 B   ---   --   ---xx   flac  0.4250  wsp2021-06-26d02t06.flac
     2:47.34       29538812 B   ---   --   ---xx   flac  0.4428  wsp2021-06-26d02t07.flac
     7:10.26       75913196 B   ---   --   ---xx   flac  0.4704  wsp2021-06-26d02t08.flac
     9:46.22      103422188 B   ---   --   ---xx   flac  0.4138  wsp2021-06-26d02t09.flac
     8:24.69       89067932 B   ---   --   ---xx   flac  0.4744  wsp2021-06-26d02t10.flac
     0:50.41        8916476 B   ---   --   ---xx   flac  0.2807  wsp2021-06-26d03t01.flac
     5:32.20       58611884 B   ---   --   ---xx   flac  0.3831  wsp2021-06-26d03t02.flac
    10:15.39      108577772 B   ---   --   ---xx   flac  0.4729  wsp2021-06-26d03t03.flac
   157:00.49     1661804260 B                            0.4368  (23 files)






More information about the bittorrent mailing list