[bittorrent] Widespread Panic Red Rocks Amphitheatre Morrison, Colorado 6/25/2021 (Schoeps CCM4V'S Z-Man)

Automated Mailer noreply-bt.e at etree.org
Sat Jun 26 09:31:32 UTC 2021


Band:           Widespread Panic
Torrent Name:   Widespread Panic Red Rocks Amphitheatre Morrison, Colorado 6/25/2021 (Schoeps CCM4V'S Z-Man)
Uploaded by:    zmanatl
DB Link:        
Details:        http://bt.etree.org/details.php?id=613028

Contact the seeder at http://db.etree.org/zmanatl

If the link to this show does not work, it was probably removed for
being non-trade-friendly.

Description / text file:
-------------------------
Widespread Panic
Red Rocks Amphitheatre
Morrison, Colorado
6/25/2021

Source: Schoeps CCM4V'S>Lunatec V2>Sound Devices 722 (24/44.1)
BOB/DFC/KFC/ZFC/AARP Clamped To The Rail Above The Soundboard, 6 1/2' High
DSP: Sound Devices 722>Sound Forge 10.0>CD Wave>flac(16)
ID3 Tagged In Foobar 2000
Recorded By: Z-Man
Seeded By: Z-Man
A Team Dirty South Recording

Disc I 1st Set

01 JB Greeting
02 I'm Not Alone >
03 Porch Song >
04 Disco >
05 Rebirtha >
06 Blackout Blues 
07 Happy 
08 Good People >
09 Dark Bar >
10 Good People >
11 Pigeons 

Disc II 2nd Set

01 Bust It Big >
02 Little Lilly >
03 Jam >
04 Pilgrims >
05 Saint Ex >
06 All Time Low >
07 Jam >
08 Jack >
09 Give 
10 Down
11 May Your Glass Be Filled 
12 Space Wrangler

Disc III Encore

01 Thanks  
02 Chilly Water

John "JB" Bell - Guitar And Vocals
Jimmy Herring - Guitar
Dave  Schools - Bass And Vocals 
John "JoJo" Hermann - Keyboards And Vocals
Domingo "Sunny" Ortiz - Percussion
Duane Trucks - Drums

wsp2021-06-25d01t01.flac:d93dc8787c19b6ef4909bdf04958a17d
wsp2021-06-25d01t02.flac:4a8b90323ba630d072749e4df8f4f3d8
wsp2021-06-25d01t03.flac:f0722bea3e3330e95fd35200e282709e
wsp2021-06-25d01t04.flac:0b0044cf9b7c0e8660ffe634a137683c
wsp2021-06-25d01t05.flac:b52274d9adde57443748534302360e3a
wsp2021-06-25d01t06.flac:cb9fa53cd763cf9719b8b2d1a2b149aa
wsp2021-06-25d01t07.flac:e68eae4a3ca328d04434ba064a8dfd2a
wsp2021-06-25d01t08.flac:9c9c62cce18853fbc9467ede2c201098
wsp2021-06-25d01t09.flac:35ce9075940b19acb4a7e68be84f81e4
wsp2021-06-25d01t10.flac:6e2e37d1a5b13cf7c48e7460fbf923a1
wsp2021-06-25d01t11.flac:d32e1091a0662078c0835c2cc60ad84a
wsp2021-06-25d02t01.flac:7faedc24f9e92255ece990a67da2146e
wsp2021-06-25d02t02.flac:8f3ec39df04542b6234e601f50af45b2
wsp2021-06-25d02t03.flac:f29b5f486a154490da27add889ca2908
wsp2021-06-25d02t04.flac:cca5775c00ec2aafa1c9fdd326a40b29
wsp2021-06-25d02t05.flac:4188d9a431434e84c1662b3f276568c2
wsp2021-06-25d02t06.flac:bd4e134cea977775bb4a81b319d4b10e
wsp2021-06-25d02t07.flac:8c960602acb8b8085860276d4730743f
wsp2021-06-25d02t08.flac:13948f21fcab89065cb8fd23a1bd84c7
wsp2021-06-25d02t09.flac:2ef548ccf4befba8ab4e87323b3b1e83
wsp2021-06-25d02t10.flac:a74ec2589748ff99ff8d76cc69400b15
wsp2021-06-25d02t11.flac:60ce44d949a4fb89fd2b1270c112e142
wsp2021-06-25d02t12.flac:99d538ab47a64cd045a484405f735cb2
wsp2021-06-25d03t01.flac:181e55ce5a34a24ec1fc4042afcd36b1
wsp2021-06-25d03t02.flac:6444f3803b0c42481cc6574fe3183b6e

 length     expanded size    cdr  WAVE problems  fmt   ratio  filename
     0:37.52        6649148 B   ---   --   ---xx   flac  0.3324  wsp2021-06-25d01t01.flac
     6:17.06       66516956 B   ---   --   ---xx   flac  0.4137  wsp2021-06-25d01t02.flac
     6:17.54       66629852 B   ---   --   ---xx   flac  0.4351  wsp2021-06-25d01t03.flac
     6:52.05       72688604 B   ---   --   ---xx   flac  0.4499  wsp2021-06-25d01t04.flac
     8:01.36       84933116 B   ---   --   ---xx   flac  0.4456  wsp2021-06-25d01t05.flac
     7:08.21       75548636 B   ---   --   ---xx   flac  0.4290  wsp2021-06-25d01t06.flac
     8:24.46       89013836 B   ---   --   ---xx   flac  0.4106  wsp2021-06-25d01t07.flac
     2:38.54       27998252 B   ---   --   ---xx   flac  0.4513  wsp2021-06-25d01t08.flac
     6:02.63       64005020 B   ---   --   ---xx   flac  0.4195  wsp2021-06-25d01t09.flac
     3:49.62       40541468 B   ---   --   ---xx   flac  0.4840  wsp2021-06-25d01t10.flac
    10:42.40      113342924 B   ---   --   ---xx   flac  0.4598  wsp2021-06-25d01t11.flac
     7:26.09       78695612 B   ---   --   ---xx   flac  0.4569  wsp2021-06-25d02t01.flac
     5:27.37       57769868 B   ---   --   ---xx   flac  0.4138  wsp2021-06-25d02t02.flac
     5:19.34       56351612 B   ---   --   ---xx   flac  0.4278  wsp2021-06-25d02t03.flac
     8:14.04       87151052 B   ---   --   ---xx   flac  0.4266  wsp2021-06-25d02t04.flac
     8:23.05       88741004 B   ---   --   ---xx   flac  0.4351  wsp2021-06-25d02t05.flac
     4:38.33       49116860 B   ---   --   ---xx   flac  0.4842  wsp2021-06-25d02t06.flac
     5:25.36       57414716 B   ---   --   ---xx   flac  0.3653  wsp2021-06-25d02t07.flac
     7:02.37       74527868 B   ---   --   ---xx   flac  0.4356  wsp2021-06-25d02t08.flac
     4:22.52       46339148 B   ---   --   ---xx   flac  0.4746  wsp2021-06-25d02t09.flac
     5:46.68       61194380 B   ---   --   ---xx   flac  0.4327  wsp2021-06-25d02t10.flac
     5:05.39       53893772 B   ---   --   ---xx   flac  0.3740  wsp2021-06-25d02t11.flac
     9:43.36      102925916 B   ---   --   ---xx   flac  0.4603  wsp2021-06-25d02t12.flac
     0:35.40        6268124 B   ---   --   ---xx   flac  0.3117  wsp2021-06-25d03t01.flac
    10:49.31      114556556 B   ---   --   ---xx   flac  0.4709  wsp2021-06-25d03t02.flac
   155:13.00     1642814300 B                            0.4373  (25 files)




More information about the bittorrent mailing list