[bittorrent] Widespread Panic The Mission Ballroom Denver, Colorado 6/24/2021 (Schoeps CCM4V'S)

Automated Mailer noreply-bt.e at etree.org
Fri Jun 25 08:03:08 UTC 2021


Band:           Widespread Panic
Torrent Name:   Widespread Panic The Mission Ballroom Denver, Colorado 6/24/2021 (Schoeps CCM4V'S)
Uploaded by:    zmanatl
DB Link:        
Details:        http://bt.etree.org/details.php?id=613012

Contact the seeder at http://db.etree.org/zmanatl

If the link to this show does not work, it was probably removed for
being non-trade-friendly.

Description / text file:
-------------------------
Widespread Panic
The Mission Ballroom
Denver, Colorado
6/24/2021

Source: Schoeps CCM4V'S>Lunatec V2>Sound Devices 722 (24/44.1)
BOB/DFC/KFC/ZFC/AARP Clamped To The Rail Above The Soundboard, 7' High
DSP: Sound Devices 722>Sound Forge 10.0>CD Wave>flac(16)
ID3 Tagged In Foobar 2000
Recorded By: Z-Man
Seeded By: Z-Man
A Team Dirty South Recording

Disc I 1st Set

01 JB Greeting
02 Wonderin' 
03 Goin' Out West >
04 Hatfield >
05 Under The Radar Jam >
06 Ribs And Whiskey 
07 Heart Of Gold >
08 This Part Of Town 
09 Visiting Day >
10 Knockin' Around The Zoo

Disc II 2nd Set

01 From The Cradle >
02 Don't Wanna Lose You >
03 Bear's Gone Fishin' >
04 Jam > 
05 Sleepy Monkey >
06 You Got Yours
07 There Is A Time 
08 B Of D >
09 Surprise Valley >
10 Drum Solo >
11 *Hope In A Hopeless World >
12 Surprise Valley >
13 Action Man

Disc III Encore

01 JB Thanks/Banter
02 Vampire Blues 
03 Honey Bee

* With False Start Of Surprise Valley

John "JB" Bell - Guitar And Vocals
Jimmy Herring - Guitar
Dave  Schools - Bass And Vocals 
John "JoJo" Hermann - Keyboards And Vocals
Domingo "Sunny" Ortiz - Percussion
Duane Trucks - Drums

wsp2021-06-24d01t01.flac:0bd1a8ac3da86141519cd3aa000791b9
wsp2021-06-24d01t02.flac:bf3b686d0d282d4d0fba6c9c0a030a72
wsp2021-06-24d01t03.flac:5861a9db48cf6454b082701eb950ef1a
wsp2021-06-24d01t04.flac:66c1cefd11e61207a33c8697c465d4f0
wsp2021-06-24d01t05.flac:dd504ad5692b211368dfff5a488e2861
wsp2021-06-24d01t06.flac:468c09719eb84c999305142104823dd4
wsp2021-06-24d01t07.flac:531a0193a1ae937a9509bf4cfd4efe87
wsp2021-06-24d01t08.flac:6496717b577675f6335b71ea192162c2
wsp2021-06-24d01t09.flac:7be0547e0e3d6e3fb197bf2e4db904c8
wsp2021-06-24d01t10.flac:4d146da0b1c4e4ceecbac060e5405e9d
wsp2021-06-24d02t01.flac:09aed7392f26488db70e6b41907e3296
wsp2021-06-24d02t02.flac:fd0f4146a38efce0a3332cc7e799763f
wsp2021-06-24d02t03.flac:477ab08dfaf07b5399017bd19d3c09f1
wsp2021-06-24d02t04.flac:114ab06691208a951deaba90bf21ad9e
wsp2021-06-24d02t05.flac:0d958f1c2404ce519e22e2cc25ced531
wsp2021-06-24d02t06.flac:a1aaa9cf09678c4b4d1767b2f14d4c24
wsp2021-06-24d02t07.flac:e9a36feddfb5fc3f24a29186e6aa254c
wsp2021-06-24d02t08.flac:5865e6328dced58c0be6850a1c4f4e4f
wsp2021-06-24d02t09.flac:372a2a21f844135eed5fb3a21b3db131
wsp2021-06-24d02t10.flac:e76917159db6137ae3d6b32c87c3dcf7
wsp2021-06-24d02t11.flac:fceb18d3a4e2dfe9fe08ea469d3d75ba
wsp2021-06-24d02t12.flac:8ff1f94b3979705e45ec6b9224785eb1
wsp2021-06-24d02t13.flac:5b6dd5cf640da9a0f733071f1d25a100
wsp2021-06-24d03t01.flac:4dc0d98f1e1bc4e90d5a5dd31d6ce759
wsp2021-06-24d03t02.flac:cd7ba793269288ba6039b258032f2583
wsp2021-06-24d03t03.flac:a2f72599ee0ea912566b3961e3252e2f

 length     expanded size    cdr  WAVE problems  fmt   ratio  filename
     0:57.19       10099532 B   ---   --   ---xx   flac  0.4323  wsp2021-06-24d01t01.flac
     4:10.18       44142380 B   ---   --   ---xx   flac  0.5061  wsp2021-06-24d01t02.flac
     9:43.58      102977660 B   ---   --   ---xx   flac  0.4482  wsp2021-06-24d01t03.flac
     9:24.66       99644876 B   ---   --   ---xx   flac  0.4370  wsp2021-06-24d01t04.flac
    11:57.17      126518828 B   ---   --   ---xx   flac  0.4717  wsp2021-06-24d01t05.flac
     9:06.33       96392060 B   ---   --   ---xx   flac  0.4951  wsp2021-06-24d01t06.flac
     4:38.14       49072172 B   ---   --   ---xx   flac  0.4992  wsp2021-06-24d01t07.flac
     6:07.56       64870556 B   ---   --   ---xx   flac  0.4680  wsp2021-06-24d01t08.flac
     6:56.70       73547084 B   ---   --   ---xx   flac  0.5126  wsp2021-06-24d01t09.flac
     9:21.53       99085100 B   ---   --   ---xx   flac  0.5006  wsp2021-06-24d01t10.flac
     4:57.01       52393196 B   ---   --   ---xx   flac  0.4418  wsp2021-06-24d02t01.flac
     6:56.14       73415372 B   ---   --   ---xx   flac  0.4363  wsp2021-06-24d02t02.flac
     9:20.65       98936924 B   ---   --   ---xx   flac  0.4930  wsp2021-06-24d02t03.flac
     2:19.28       24585500 B   ---   --   ---xx   flac  0.3945  wsp2021-06-24d02t04.flac
    10:53.62      115335068 B   ---   --   ---xx   flac  0.3998  wsp2021-06-24d02t05.flac
     8:39.13       91582220 B   ---   --   ---xx   flac  0.4605  wsp2021-06-24d02t06.flac
     3:57.63       41955020 B   ---   --   ---xx   flac  0.4144  wsp2021-06-24d02t07.flac
     3:41.46       39092636 B   ---   --   ---xx   flac  0.4736  wsp2021-06-24d02t08.flac
     6:20.48       67144940 B   ---   --   ---xx   flac  0.4992  wsp2021-06-24d02t09.flac
     3:10.26       33577196 B   ---   --   ---xx   flac  0.4345  wsp2021-06-24d02t10.flac
     5:55.14       62654972 B   ---   --   ---xx   flac  0.4811  wsp2021-06-24d02t11.flac
     4:08.07       43763708 B   ---   --   ---xx   flac  0.4710  wsp2021-06-24d02t12.flac
     4:23.11       46419116 B   ---   --   ---xx   flac  0.5205  wsp2021-06-24d02t13.flac
     0:56.53       10003100 B   ---   --   ---xx   flac  0.3738  wsp2021-06-24d03t01.flac
     6:05.15       64421324 B   ---   --   ---xx   flac  0.4756  wsp2021-06-24d03t02.flac
     6:37.15       70066124 B   ---   --   ---xx   flac  0.4988  wsp2021-06-24d03t03.flac
   160:46.60     1701696664 B                            0.4679  (26 files)





More information about the bittorrent mailing list