[bittorrent] The B3 Kings Craft Hall Food ProJect Waltham, Massachusetts 6/15/2021 (Schoeps CCM4V'S FOB)

Automated Mailer noreply-bt.e at etree.org
Wed Jun 16 04:41:44 UTC 2021


Band:           Other
Torrent Name:   The B3 Kings  Craft Hall Food ProJect Waltham, Massachusetts 6/15/2021 (Schoeps CCM4V'S FOB)
Uploaded by:    zmanatl
DB Link:        
Details:        http://bt.etree.org/details.php?id=612937

Contact the seeder at http://db.etree.org/zmanatl

If the link to this show does not work, it was probably removed for
being non-trade-friendly.

Description / text file:
-------------------------
The B3 Kings 
Craft Hall Food ProJect
Waltham, Massachusetts
6/15/2021

Source: Schoeps CCM4V'S>Lunatec V2>Sound Devices 722 (24/44.1)
FOB/DFC/KFC/ZFC/AARP 9' From Stage, 6 1/2' High
DSP: Sound Devices 722>Sound Forge 10.0>CD Wave>flac(16)
ID3 Tagged In Foobar 2000
Recorded By: Z-Man
Seeded By: Z-Man
A Team Dirty South Recording

Disc I 

01 ?
02 ?
03 ?
04 ?
05 The Trash Bag Man
06 A Fool For You
07 The Love Boat

Johnny Trama - Guitar 
Rusty Scott - Hammond B3 Organ
Mark Hickox - Bass 
T9m Arey - Drums

theb3kigs2021-06-15d01t01.flac:dd89f8aebfa94b6be90f4ea22b8ef892
theb3kigs2021-06-15d01t02.flac:fbd3ed7012ad5dc2bc328d69baf5a0f5
theb3kigs2021-06-15d01t03.flac:89e3c77243974dc3e80ec64b21889952
theb3kigs2021-06-15d01t04.flac:bbf3a529f39e88c2c4872d83c477b2de
theb3kigs2021-06-15d01t05.flac:c2c9279668b1469ce5e17ef1461ec554
theb3kigs2021-06-15d01t06.flac:63a84f6b3eb83773f97836e5ad4ab5c1
theb3kigs2021-06-15d01t07.flac:e4a82c694d00e584cc6a06a9006a5844

 length     expanded size    cdr  WAVE problems  fmt   ratio  filename
    10:06.12      106926668 B   ---   --   ---xx   flac  0.4850  theb3kigs2021-06-15d01t01.flac
    10:23.45      110003084 B   ---   --   ---xx   flac  0.4411  theb3kigs2021-06-15d01t02.flac
    11:52.59      125735612 B   ---   --   ---xx   flac  0.4862  theb3kigs2021-06-15d01t03.flac
     8:40.06       91742156 B   ---   --   ---xx   flac  0.4642  theb3kigs2021-06-15d01t04.flac
    11:09.62      118157468 B   ---   --   ---xx   flac  0.5031  theb3kigs2021-06-15d01t05.flac
    10:30.01      111134396 B   ---   --   ---xx   flac  0.3999  theb3kigs2021-06-15d01t06.flac
     7:30.43       79481180 B   ---   --   ---xx   flac  0.4839  theb3kigs2021-06-15d01t07.flac
    70:13.03      743180564 B                            0.4662  (7 files)






More information about the bittorrent mailing list