[bittorrent] dmb1995-05-19 Las Vegas SBD DAT Master (BY REQUEST)

Automated Mailer noreply-bt.e at etree.org
Sat Jun 12 22:55:30 UTC 2021


Band:           Dave Matthews Band
Torrent Name:   dmb1995-05-19 Las Vegas SBD DAT Master (BY REQUEST)
Uploaded by:    charlie miller
DB Link:        
Details:        http://bt.etree.org/details.php?id=612916

Contact the seeder at http://db.etree.org/charlie miller

If the link to this show does not work, it was probably removed for
being non-trade-friendly.

Description / text file:
-------------------------
Dave Matthews Band - May 19, 1995
Sam Boyd Stadium - Las Vegas, NV

Recording Info:
SBD > DAT Master (44.1k)

Transfer Info:
DAT Master (Sony PCM-R500) > Sound Devices 744T > Samplitude Pro X4 > FLAC
(1 Disc Audio / 1 Disc FLAC)

All Transfers and Mastering by Charlie Miller
charliemiller87 at earthlink.net
March 25, 2017

Notes:
-- Recorded by Don Pearson
-- Opened for The Grateful Dead

Setlist:
01 - Seek Up
02 - Dancing Nancies
03 - Satellite >
04 - Minarets >
05 - Typical Situation
06 - Say Goodbye
07 - Recently


SHNTOOL OUTPUT:
    length     expanded size    cdr  WAVE problems  fmt   ratio  filename
    13:51.08      146607260 B   ---   --   ---xx   flac  0.4921  01 - Seek Up.flac
     8:49.64       93466172 B   ---   --   ---xx   flac  0.5479  02 - Dancing Nancies.flac
     5:30.03       58219100 B   ---   --   ---xx   flac  0.4892  03 - Satellite.flac
     8:01.73       85020140 B   ---   --   ---xx   flac  0.5302  04 - Minarets.flac
     9:49.56      104031356 B   ---   --   ---xx   flac  0.4430  05 - Typical Situation.flac
     8:11.09       86633612 B   ---   --   ---xx   flac  0.4516  06 - Say Goodbye.flac
     8:47.29       93031052 B   ---   --   ---xx   flac  0.5372  07 - Recently.flac
    63:01.17      667008692 B                            0.4979  (7 files)




More information about the bittorrent mailing list