[bittorrent] gd1974-10-19.152593.aud.flac1644

Automated Mailer noreply-bt.e at etree.org
Mon Jun 7 01:31:11 UTC 2021


Band:           Grateful Dead
Torrent Name:   gd1974-10-19.152593.aud.flac1644
Uploaded by:    nfagdtrfb
DB Link:        
Details:        http://bt.etree.org/details.php?id=612862

Contact the seeder at http://db.etree.org/nfagdtrfb

If the link to this show does not work, it was probably removed for
being non-trade-friendly.

Description / text file:
-------------------------
GRATEFUL DEAD
Winterland
San Francisco CA
10-19-1974

s1t01 intro
s1t02 Mississippi Half-Step
s1t03 Me & My Uncle
s1t04 Friend of the Devil
s1t05 Beat it on Down the Line
s1t06 It Must Have Been the Roses
s1t07 El Paso
s1t08 Loose Lucy
s1t09 Black Throated Wind
s1t10 Scarlet/Begonias
s1t11 To Lay Me Down
s1t12 Mama Tried
s1t13 Eyes of the World >
s1t14 China Doll/
s1t15 Big River

(missing: Seastones set)

s2t01 announcement
s2t02 Uncle John's Band
s2t03 Big Railroad Blues
s2t04 The Race is On
s2t05 Tomorrow is Forever
s2t06 Mexicali Blues
s2t07 Dire Wolf
s2t08 Sugar Magnolia >
s2t09 He's//Gone >
s2t10 Jam > Drums > Space >
s2t11 Truckin' >
s2t12 Black Peter
s2t13 Sunshine Daydream/

(missing encores: OMSN & USBlues)

Source: Unknown AUD from the collection of Rich Petrunis.

Transfer: TDK Audua-90's (normal bias) > Nakamichi CR-5A > 
Edirol FA-66 > Wavelab 2448 > R8Brain SRC > CD-Wave > TLH > 
FLAC 1644 tagged. Transferred by Andrew F. 06/2021

Note: Here's an AUD of this famous show, but be warned, the 
quality varies from decent to terrible, with the final 45 
minutes sounding very much the worse for wear. Noted flaws: 
- The speed varied radically, and was off by 3.5% to 9.5%, 
adjustments were applied, but it remains far from perfect.
- Extensive tape surface noise & hiss, this was EQ'ed a bit.
- Gap in Scarlet Begonias at 4:51, approx 15 seconds missing.
- About half of China Doll is missing, and there is horrible 
squealing-tape damage for much of the track, wasn't fixable.
- Most of Big River is marred by tape damage & speed issues.
- Two small gaps in He's Gone; at 4:15 and again at 6:41.
- About one minute missing from the end of Sunshine Daydream.
With thanks to John and Rich Petrunis for sharing their tapes!

    length     expanded size    cdr  WAVE problems  fmt   ratio  filename
     0:32.22        5696588 B   ---   --   ---xx   flac  0.5981  gd1974-10-19s1t01.flac
     8:06.66       85885676 B   ---   --   ---xx   flac  0.6061  gd1974-10-19s1t02.flac
     2:58.13       31429820 B   ---   --   ---xx   flac  0.5992  gd1974-10-19s1t03.flac
     4:42.52       49867148 B   ---   --   ---xx   flac  0.5986  gd1974-10-19s1t04.flac
     3:19.11       35129516 B   ---   --   ---xx   flac  0.6017  gd1974-10-19s1t05.flac
     6:15.60       66291164 B   ---   --   ---xx   flac  0.5983  gd1974-10-19s1t06.flac
     4:29.35       47533964 B   ---   --   ---xx   flac  0.5990  gd1974-10-19s1t07.flac
     5:12.24       55093292 B   ---   --   ---xx   flac  0.5998  gd1974-10-19s1t08.flac
     7:32.39       79824572 B   ---   --   ---xx   flac  0.6025  gd1974-10-19s1t09.flac
    12:55.30      136780604 B   ---   --   ---xx   flac  0.6079  gd1974-10-19s1t10.flac
     8:10.08       86454860 B   ---   --   ---xx   flac  0.5997  gd1974-10-19s1t11.flac
     2:32.21       26862236 B   ---   --   ---xx   flac  0.6113  gd1974-10-19s1t12.flac
    18:43.58      198233660 B   ---   --   ---xx   flac  0.6040  gd1974-10-19s1t13.flac
     2:45.12       29134268 B   ---   --   ---xx   flac  0.6098  gd1974-10-19s1t14.flac
     5:01.39       53188172 B   ---   --   ---xx   flac  0.6190  gd1974-10-19s1t15.flac
     0:36.38        6439820 B   ---   --   ---xx   flac  0.6008  gd1974-10-19s2t01.flac
     8:40.29       91796252 B   ---   --   ---xx   flac  0.6189  gd1974-10-19s2t02.flac
     4:38.17       49079228 B   ---   --   ---xx   flac  0.6198  gd1974-10-19s2t03.flac
     3:09.18       33381980 B   ---   --   ---xx   flac  0.6164  gd1974-10-19s2t04.flac
     6:05.48       64498940 B   ---   --   ---xx   flac  0.6107  gd1974-10-19s2t05.flac
     3:49.60       40536764 B   ---   --   ---xx   flac  0.6067  gd1974-10-19s2t06.flac
     4:24.32       46644908 B   ---   --   ---xx   flac  0.6058  gd1974-10-19s2t07.flac
     5:50.62       61885868 B   ---   --   ---xx   flac  0.6097  gd1974-10-19s2t08.flac
    11:21.44      120231932 B   ---   --   ---xx   flac  0.6070  gd1974-10-19s2t09.flac
    18:43.64      198247772 B   ---   --   ---xx   flac  0.6061  gd1974-10-19s2t10.flac
     8:11.26       86673596 B   ---   --   ---xx   flac  0.6069  gd1974-10-19s2t11.flac
    10:07.25      107133644 B   ---   --   ---xx   flac  0.6069  gd1974-10-19s2t12.flac
     2:14.44       23741132 B   ---   --   ---xx   flac  0.6062  gd1974-10-19s2t13.flac
   181:11.22     1917697376 B                            0.6066  (28 files)

No errors occured.




More information about the bittorrent mailing list