[bittorrent] gd1988-04-22.152577.UltraMatrix.sbd.cm.miller.t.flac16

Automated Mailer noreply-bt.e at etree.org
Sat Jun 5 14:20:17 UTC 2021


Band:           Grateful Dead
Torrent Name:   gd1988-04-22.152577.UltraMatrix.sbd.cm.miller.t.flac16
Uploaded by:    norm
DB Link:        
Details:        http://bt.etree.org/details.php?id=612844

Contact the seeder at http://db.etree.org/norm

If the link to this show does not work, it was probably removed for
being non-trade-friendly.

Description / text file:
-------------------------
Grateful Dead - April 22, 1988
Irvine Meadows Amphitheatre - Irvine, CA

Recording Info:
UltraMatrix SBD > Cassette Master (TDK MA-XG)

Transfer Info:
Cassette Master (Nakamichi CR-7A) > Tascam DA-3000 (DSF 1-bit/5.6MHz) >
Tascam Hi-Res Editor (WAV 24-bit/96k) > Samplitude Pro X5 Suite > FLAC/24
(1 DVD FLAC)

All Transfers and Mastering by Charlie Miller
charliemiller87 at earthlink.net
April 21, 2021

Notes:
-- Recorded by Don Pearson and Dan Healy
-- Multiple masters were used to make this show complete
-- This is 152289 24 -> 16 @ 44.1

Set 1:
01 - Tuning
02 - Mississippi Half-Step Uptown Toodeloo
03 - Feel Like A Stranger >
04 - Franklin's Tower
05 - New Minglewood Blues
06 - Candyman
07 - Queen Jane Approximately
08 - When Push Comes To Shove
09 - Let It Grow

Set 2:
10 - China Cat Sunflower >
11 - I Know You Rider
12 - Louie Louie
13 - Estimated Prophet >
14 - He's Gone >
15 - Drums >
16 - Space >
17 - The Wheel >
18 - Gimme Some Lovin' >
19 - All Along The Watchtower >
20 - Sugar Magnolia

Encore:
21 - Encore Break
22 - Black Muddy River


SHNTOOL OUTPUT:
   length     expanded size    cdr  WAVE problems  fmt   ratio  filename
    1:03.34       11193212 B   ---   --   ---xx   flac  0.5199  01 Tuning.flac
    6:50.65       72476924 B   ---   --   ---xx   flac  0.6255  02 Mississippi Half-Step Uptown Toodeloo.flac
    7:36.18       80480780 B   ---   --   ---xx   flac  0.6431  03 Feel Like A Stranger.flac
    9:16.57       98212508 B   ---   --   ---xx   flac  0.6175  04 Franklin's Tower.flac
    8:48.03       93146300 B   ---   --   ---xx   flac  0.6223  05 New Minglewood Blues.flac
    7:06.50       75264044 B   ---   --   ---xx   flac  0.6008  06 Candyman.flac
    6:33.25       69384044 B   ---   --   ---xx   flac  0.6211  07 Queen Jane Approximately.flac
    5:01.26       53157596 B   ---   --   ---xx   flac  0.6178  08 When Push Comes To Shove.flac
   13:04.52      138419948 B   ---   --   ---xx   flac  0.6277  09 Let It Grow.flac
    6:04.54       64336652 B   ---   --   ---xx   flac  0.6060  10 China Cat Sunflower.flac
    5:14.31       55462556 B   ---   --   ---xx   flac  0.6319  11 I Know You Rider.flac
    5:02.00       53272844 B   ---   --   ---xx   flac  0.6094  12 Louie Louie.flac
    9:35.72      101599388 B   ---   --   ---xx   flac  0.6025  13 Estimated Prophet.flac
    9:58.72      105656588 B   ---   --   ---xx   flac  0.5793  14 He's Gone.flac
    9:14.26       97786796 B   ---   --   ---xx   flac  0.5506  15 Drums.flac
    7:34.29       80153852 B   ---   --   ---xx   flac  0.5308  16 Space.flac
    4:12.45       44558684 B   ---   --   ---xx   flac  0.5912  17 The Wheel.flac
    4:35.02       48514748 B   ---   --   ---xx   flac  0.6147  18 Gimme Some Lovin'.flac
    4:41.39       49660172 B   ---   --   ---xx   flac  0.6367  19 All Along The Watchtower.flac
    9:22.00       99136844 B   ---   --   ---xx   flac  0.6273  20 Sugar Magnolia.flac
    4:15.69       45144332 B   ---   --   ---xx   flac  0.5063  21 Encore Break.flac
    8:53.16       94058876 B   ---   --   ---xx   flac  0.5618  22 Black Muddy River.flac
  154:06.35     1631077688 B                            0.6012  (22 files)




More information about the bittorrent mailing list