[bittorrent] Phil Lesh And Friends The Brooklyn Bowl Nashville, Tennessee 7/30/2021 (Z-Man Schoeps CCM4V'S)

Automated Mailer noreply-bt.e at etree.org
Sat Jul 31 08:23:09 UTC 2021


Band:           Phil Lesh & Friends
Torrent Name:   Phil Lesh And Friends The Brooklyn Bowl Nashville, Tennessee 7/30/2021  (Z-Man Schoeps CCM4V'S)
Uploaded by:    zmanatl
DB Link:        
Details:        http://bt.etree.org/details.php?id=613325

Contact the seeder at http://db.etree.org/zmanatl

If the link to this show does not work, it was probably removed for
being non-trade-friendly.

Description / text file:
-------------------------
Phil Lesh And Friends
The Brooklyn Bowl
Nashville, Tennessee
7/30/2021 

Source: Schoeps CCM4V'S>Lunatec V2>Sound Devices 722 (24/44.1)
ATB/DLFC/KFC/ZFC/AARP Clamped The The Balcony Rail Above The Soundboard
DSP: Sound Devices 722>Sound Forge 10.0>CD Wave>flac(16)
ID3 Tagged In Foobar 2000
Recorded By: Z-Man
Seeded By: Z-Man
A Team Dirty South Recording

Disc I 1st Set

01 Althea 
02 Deal
03 Ship Of Fools 
04 Jack Straw 
05 Mississippi Half-Step, Uptown Toodeloo
06 Let It Grow
07 Casey Jones
08 Phil Banter/Outro

Disc II 2nd Set 

01 Help On The Way >
02 Slipknot! >
03 Franklin's Tower 
04 Bird Song >
05 Cassidy
06 Black Muddy River 
07 Scarlet Begonias >
08 Sugaree
Encore:
09 U S Blues 
10 Phil Donor Rap/Outro  

Phil Lesh - Bass And Vocals
Grahame Lesh - Guitar And Vocals
Taylor Goldsmith - Guitar And Vocals
Trevor Menear - Guitar 
Nicki Bluhm -Vocals And Percussion
Lee Pardini - Keyboard And Vocals
Griffin Goldsmith - Drums And Vocals

phil2021-07-30d01t01.flac:037f2cea703a0ac284e0b3abde12e910
phil2021-07-30d01t02.flac:33dc29440e72f080810e01bd0eb17c6e
phil2021-07-30d01t03.flac:21744565e4c88ed946ddacff031ac938
phil2021-07-30d01t04.flac:96d93bf82e8e80f54403755d60583133
phil2021-07-30d01t05.flac:31b2aeb4052432b2cbd21d4052c7746b
phil2021-07-30d01t06.flac:2d8d00a55fb7f80f8e4a2dd0c3a1c639
phil2021-07-30d01t07.flac:948bb407420472a62f1a84ea4e293dc8
phil2021-07-30d01t08.flac:9864d54837b58150df61c68d099c23f3
phil2021-07-30d02t01.flac:996933980b9e7a0fb074402b12279c1f
phil2021-07-30d02t02.flac:c4104986b4dd1923aa1976e8430d62ba
phil2021-07-30d02t03.flac:a827486550a11f307678dbeba7710595
phil2021-07-30d02t04.flac:51696e347e125ab7db4835ae94f00cb8
phil2021-07-30d02t05.flac:3ae04d758dbb39f68340ce93a1fd291b
phil2021-07-30d02t06.flac:8b4a8d9251e4149eda85fce1a53ad5cd
phil2021-07-30d02t07.flac:74958e08f0fe8caffc681bf3141c4852
phil2021-07-30d02t08.flac:7697e84194f9e0af8f4ac51046fce13f
phil2021-07-30d02t09.flac:2e56aa8ca079d8824151c5f76f1ccc02
phil2021-07-30d02t10.flac:753ed267ed2b0399eb4c43a66af6579b

  length     expanded size    cdr  WAVE problems  fmt   ratio  filename
    10:46.21      114003836 B   ---   --   ---xx   flac  0.5288  phil2021-07-30d01t01.flac
     7:20.42       77714828 B   ---   --   ---xx   flac  0.5170  phil2021-07-30d01t02.flac
     7:25.52       78620348 B   ---   --   ---xx   flac  0.4951  phil2021-07-30d01t03.flac
    11:04.12      117157868 B   ---   --   ---xx   flac  0.5125  phil2021-07-30d01t04.flac
     9:59.65      105816524 B   ---   --   ---xx   flac  0.4981  phil2021-07-30d01t05.flac
    13:56.26      147531596 B   ---   --   ---xx   flac  0.5228  phil2021-07-30d01t06.flac
     6:56.51       73502396 B   ---   --   ---xx   flac  0.5650  phil2021-07-30d01t07.flac
     0:52.18        9215180 B   ---   --   ---xx   flac  0.4686  phil2021-07-30d01t08.flac
     4:41.28       49634300 B   ---   --   ---xx   flac  0.5498  phil2021-07-30d02t01.flac
     8:01.14       84881372 B   ---   --   ---xx   flac  0.5454  phil2021-07-30d02t02.flac
     9:13.67       97706828 B   ---   --   ---xx   flac  0.5566  phil2021-07-30d02t03.flac
    12:45.61      135089516 B   ---   --   ---xx   flac  0.4813  phil2021-07-30d02t04.flac
     9:11.22       97248188 B   ---   --   ---xx   flac  0.5315  phil2021-07-30d02t05.flac
     6:54.52       73151948 B   ---   --   ---xx   flac  0.4867  phil2021-07-30d02t06.flac
     8:50.51       93611996 B   ---   --   ---xx   flac  0.5633  phil2021-07-30d02t07.flac
    11:03.27      117016748 B   ---   --   ---xx   flac  0.5418  phil2021-07-30d02t08.flac
     7:10.66       76007276 B   ---   --   ---xx   flac  0.5295  phil2021-07-30d02t09.flac
     1:45.14       18554972 B   ---   --   ---xx   flac  0.4346  phil2021-07-30d02t10.flac
   148:00.14     1566465720 B                            0.5234  (18 files)





More information about the bittorrent mailing list