[bittorrent] gr8FL dude & Token Rhyme Diane and John Rabson's House Roswell, Georgia 7/27/2021 (Z-Man Schoeps CCM4V'S FOB)

Automated Mailer noreply-bt.e at etree.org
Wed Jul 28 16:41:30 UTC 2021


Band:           Other
Torrent Name:   gr8FL dude & Token Rhyme Diane and John Rabson's House Roswell, Georgia 7/27/2021  (Z-Man Schoeps CCM4V'S FOB)
Uploaded by:    zmanatl
DB Link:        
Details:        http://bt.etree.org/details.php?id=613312

Contact the seeder at http://db.etree.org/zmanatl

If the link to this show does not work, it was probably removed for
being non-trade-friendly.

Description / text file:
-------------------------
gr8FL dude & Token Rhyme
Diane and John Rabson's House
Roswell, Georgia
7/27/2021 

Source: Schoeps CCM4V'S>Sound Devices 722 (24/44.1)
FOB/DFC/KFC/ZFC/AARP 8' From Stage, 6 1/2' High
DSP: Sound Devices 722>Sound Forge 10.0>CD Wave>flac(16)
ID3 Tagged In Foobar 2000
Recorded By: Z-Man
Seeded By: Z-Man
A Team Dirty South Recording

Disc I 

01 The Music Never Stopped 
02 Mississippi Half-Step, Uptown Toodeloo
03 The Race Is On
04 Hey Pockey Way 
05 They Love Each Other
06 Terrapn Station >
07 Playin' In The Band

Lewis Newmark - Guitar And Vocals
Craig Neely - Guitar And Vocals
Diane Rabson - Keyboards And Vocals
Jason Novoselsky - Bass 
Ryan Marcus - Drums

gr8fl2021-07-27d01t01.flac:0f0289b6b04349100ce99b1d7bd01b67
gr8fl2021-07-27d01t02.flac:ac9de898abc5598fd8b4700b4572589e
gr8fl2021-07-27d01t03.flac:98a93dc317f0a919efec00c45687fcd8
gr8fl2021-07-27d01t04.flac:d504e47df01c4ed1220b82582145c922
gr8fl2021-07-27d01t05.flac:fcaf98b3c5a3ad81a3771fd302874cd2
gr8fl2021-07-27d01t06.flac:a80e54524998f58c9a97cb1ce50c83dc
gr8fl2021-07-27d01t07.flac:69ce629f9b5178624f303236ce075b15

length     expanded size    cdr  WAVE problems  fmt   ratio  filename
     6:46.21       71667836 B   ---   --   ---xx   flac  0.5257  gr8fl2021-07-27d01t01.flac
     9:20.26       98845196 B   ---   --   ---xx   flac  0.4968  gr8fl2021-07-27d01t02.flac
     4:38.63       49187420 B   ---   --   ---xx   flac  0.4457  gr8fl2021-07-27d01t03.flac
     6:25.15       67949324 B   ---   --   ---xx   flac  0.5145  gr8fl2021-07-27d01t04.flac
     6:51.30       72571004 B   ---   --   ---xx   flac  0.4587  gr8fl2021-07-27d01t05.flac
    11:14.54      119020652 B   ---   --   ---xx   flac  0.5120  gr8fl2021-07-27d01t06.flac
    12:35.05      133193804 B   ---   --   ---xx   flac  0.5380  gr8fl2021-07-27d01t07.flac
    57:51.64      612435236 B                            0.5054  (7 files)




More information about the bittorrent mailing list