[bittorrent] Allman Betts Band 2021-07-23 Chicago Ridge IL - RidgeFest 2021 - AKG 568B by sos FLAC 24/48

Automated Mailer noreply-bt.e at etree.org
Tue Jul 27 23:07:37 UTC 2021


Band:           Other
Torrent Name:   Allman Betts Band 2021-07-23 Chicago Ridge IL - RidgeFest 2021 - AKG 568B by sos FLAC 24/48
Uploaded by:    morst
DB Link:        
Details:        http://bt.etree.org/details.php?id=613306

Contact the seeder at http://db.etree.org/morst

If the link to this show does not work, it was probably removed for
being non-trade-friendly.

Description / text file:
-------------------------
Allman Betts Band
Friday, July 23, 2021
Chicago Ridge, IL USA
Freedom Park

RidgeFest 2021


01. music on PA & tuning
02. Savannah's Dream ->
03. Magnolia Road
04. Shakedown Street
05. Airboats & Cocaine
06. Midnight Rider
07. Blue Sky
08. Autumn Breeze
09. Southern Rain
10. Rivers Run
11. Down To The River
12. band intros
13. Shinin'
14. Dreams
15. encore break
16. Pale Horse Rider


https://chicagoridge.org/183/RidgeFest


Source recording by sos:
FOB (l. corner), @ 6' (PAS), 40' to stage
AKG 568B short shotgun mics > MixPre-10 > WAV @2448
Tranfer by morst:
WAV > Sound Forge 2.5.1 (gain & limit) > Audacity 2.4.2 (tracking and end fades) > xACT 2.50 > FLAC @2448



SHNTOOL INFO:
Channels:                     2
Bits/sample:                  24
Samples/sec:                  48000



SHNTOOL LEN:
    length     expanded size    cdr  WAVE problems  fmt   ratio  filename
     1:09.895      20129888 B   cxx   --   ---xx   flac  0.5881  AllmanBettsBand2021-07-23t01.flac
    12:21.442     213535364 B   cxx   --   ---xx   flac  0.6751  AllmanBettsBand2021-07-23t02.flac
     4:59.559      86273012 B   cxx   --   ---xx   flac  0.6640  AllmanBettsBand2021-07-23t03.flac
    10:22.447     179264762 B   cxx   --   ---xx   flac  0.6615  AllmanBettsBand2021-07-23t04.flac
     5:31.593      95498948 B   cxx   --   ---xx   flac  0.6692  AllmanBettsBand2021-07-23t05.flac
     6:07.544     105852818 B   cxx   --   ---xx   flac  0.6573  AllmanBettsBand2021-07-23t06.flac
     9:01.033     155817626 B   cxx   --   ---xx   flac  0.6815  AllmanBettsBand2021-07-23t07.flac
     9:15.576     160005914 B   cxx   --   ---xx   flac  0.6641  AllmanBettsBand2021-07-23t08.flac
     8:18.638     143607674 B   cxx   --   ---xx   flac  0.6433  AllmanBettsBand2021-07-23t09.flac
     4:17.981      74298488 B   cxx   --   ---xx   flac  0.6453  AllmanBettsBand2021-07-23t10.flac
     8:36.585     148776398 B   cxx   --   ---xx   flac  0.6314  AllmanBettsBand2021-07-23t11.flac
     1:20.000      23039966 B   cxx   --   ---xx   flac  0.6142  AllmanBettsBand2021-07-23t12.flac
     5:57.695     103016132 B   cxx   --   ---xx   flac  0.6762  AllmanBettsBand2021-07-23t13.flac
    17:54.112     309344432 B   cxx   --   ---xx   flac  0.6650  AllmanBettsBand2021-07-23t14.flac
     2:37.794      45444734 B   cxx   --   ---xx   flac  0.5730  AllmanBettsBand2021-07-23t15.flac
     6:26.558     111328712 B   cxx   --   ---xx   flac  0.6364  AllmanBettsBand2021-07-23t16.flac
   114:18.452    1975234868 B                            0.6574  (16 files)



AllmanBettsBand2021-07-23-sos-FLAC2448



More information about the bittorrent mailing list