[bittorrent] Swami Gone Bananas Swami After Dark Live The Treehouse Theatre/The Drawing Room Tucker, Georgia 7/25/2021 (Z-Man Schoeps CCM4V'S FOB)

Automated Mailer noreply-bt.e at etree.org
Mon Jul 26 19:17:59 UTC 2021


Band:           Other
Torrent Name:   Swami Gone Bananas Swami After Dark Live The Treehouse Theatre/The Drawing Room Tucker, Georgia 7/25/2021  (Z-Man Schoeps CCM4V'S FOB)
Uploaded by:    zmanatl
DB Link:        
Details:        http://bt.etree.org/details.php?id=613299

Contact the seeder at http://db.etree.org/zmanatl

If the link to this show does not work, it was probably removed for
being non-trade-friendly.

Description / text file:
-------------------------
Swami Gone Bananas
Swami After Dark Live
The Treehouse Theatre/The Drawing Room
Tucker, Georgia
7/25/2021 

Source: Schoeps CCM4V'S>Sound Devices 722 (24/44.1)
FOB/DFC/KFC/ZFC/AARP 16' From Stage, 6 1/2' High/6' From Stage, 4 1/2' High
DSP: Sound Devices 722>Sound Forge 10.0>CD Wave>flac(16)
ID3 Tagged In Foobar 2000
Recorded By: Z-Man
Seeded By: Z-Man
A Team Dirty South Recording

Disc I Treehouse Theatre

01 The 13 Question Method
02 Trouble You Can't Fool Me
03 Swami Paypal Jingle/Lucy In The Sky Reprise
04 *Rain
05 Picture In A Frame
06 #Shopping For Clothes

Disc II The Drawing Room

01 Thick As A Brick
02 Thriftstore Nightmare
03 Across The Universe
04 @Party In The Middle
05 @Crazy Mama 
06 @Good Morning Little Schoolgirl 
07 @Big Railroad Blues
08 @I Found A Love
09 @We Bid You Goodnight

* With China-Cat Sunflower Intro
# It Began to Rain, so We Had To Head Indoors At The End f This Song
@ With Tinsley Ellis On Guitar And Vocals

Michael "Swami" Schulman - Electric Guitar, Acoustic Guitar, And Vocals
Richard Hurt - Guitar
Dave "Dece AQnd A Quarter" Roth - Bass, Melotron, And Vocals
JR Hawkins - Percussion And Vocals 
Bobby Andre - Drums

swami2021-07-25d01t01.flac:2f367dd44044eadaf981798014198b96
swami2021-07-25d01t02.flac:b9ed2e5749bdbe0f3e601cdb37fe4ab3
swami2021-07-25d01t03.flac:8641a87ba958e165348165dc6215ca5b
swami2021-07-25d01t04.flac:d8f81972e5a8a95e3a916f7209a5272b
swami2021-07-25d01t05.flac:65888b629da607d70cca3026b7f8e077
swami2021-07-25d01t06.flac:28e46ae47d4355b3d4ed6b07e1fa91bc
swami2021-07-25d02t01.flac:c68c9579ddc174c8acf20aa991f3ba86
swami2021-07-25d02t02.flac:e134851f7406ab1b2bd9ebe9df086405
swami2021-07-25d02t03.flac:9f5aa7b94c3b248e4316d0c1e2fed5d5
swami2021-07-25d02t04.flac:7f10ae71006955a963540ce1cf089835
swami2021-07-25d02t05.flac:b40f1c10868ddb97da1e4d5c906879c2
swami2021-07-25d02t06.flac:49538cdc5b72da5c1f5fd2d042d72a29
swami2021-07-25d02t07.flac:34462f12401cdfd6e7092e7601c30888
swami2021-07-25d02t08.flac:d28058a64bc3264f16253395d4a5af6c
swami2021-07-25d02t09.flac:7a86e3d6dfb50a4ee25c6d55877af95d

  length     expanded size    cdr  WAVE problems  fmt   ratio  filename
     5:18.26       56156396 B   ---   --   ---xx   flac  0.4447  swami2021-07-25d01t01.flac
     6:31.08       68991260 B   ---   --   ---xx   flac  0.4911  swami2021-07-25d01t02.flac
     2:08.19       22623932 B   ---   --   ---xx   flac  0.3866  swami2021-07-25d01t03.flac
     5:21.34       56704412 B   ---   --   ---xx   flac  0.4916  swami2021-07-25d01t04.flac
     3:31.40       37314524 B   ---   --   ---xx   flac  0.3905  swami2021-07-25d01t05.flac
     5:16.54       55869452 B   ---   --   ---xx   flac  0.4063  swami2021-07-25d01t06.flac
     4:54.22       51913388 B   ---   --   ---xx   flac  0.3880  swami2021-07-25d02t01.flac
     4:33.00       48157244 B   ---   --   ---xx   flac  0.4348  swami2021-07-25d02t02.flac
     5:48.41       61483676 B   ---   --   ---xx   flac  0.4160  swami2021-07-25d02t03.flac
     3:56.10       41653964 B   ---   --   ---xx   flac  0.4748  swami2021-07-25d02t04.flac
     3:58.60       42124364 B   ---   --   ---xx   flac  0.4612  swami2021-07-25d02t05.flac
     4:56.33       52292060 B   ---   --   ---xx   flac  0.4457  swami2021-07-25d02t06.flac
     5:06.63       54126620 B   ---   --   ---xx   flac  0.5004  swami2021-07-25d02t07.flac
     3:43.09       39358412 B   ---   --   ---xx   flac  0.4883  swami2021-07-25d02t08.flac
     3:20.21       35329436 B   ---   --   ---xx   flac  0.4419  swami2021-07-25d02t09.flac
    68:24.65      724099140 B                            0.4472  (15 files)






More information about the bittorrent mailing list