[bittorrent] gd1982-07-17.xxxxxx.beyers.tompkins.flac2448

Automated Mailer noreply-bt.e at etree.org
Wed Jul 21 13:37:46 UTC 2021


Band:           Grateful Dead
Torrent Name:   gd1982-07-17.xxxxxx.beyers.tompkins.flac2448
Uploaded by:    nfagdtrfb
DB Link:        
Details:        http://bt.etree.org/details.php?id=613263

Contact the seeder at http://db.etree.org/nfagdtrfb

If the link to this show does not work, it was probably removed for
being non-trade-friendly.

Description / text file:
-------------------------
GRATEFUL DEAD
County Fairgrounds
Ventura CA
07-17-1982

s1t01 crowd
s1t02 Bertha >
s1t03 Greatest Story Ever Told
s1t04 They Love Each Other
s1t05 Me & My Uncle >
s1t06 Big River
s1t07 Althea
s1t08 Little Red Rooster
s1t09 Tennessee Jed
s1t10 Truckin'

s2t01 crowd
s2t02 Playin' in the Band >
s2t03 China Cat Sunflower >
s2t04 I Know You Rider
s2t05 Estimated Prophet >
s2t06 Bob & Brent Jam
s2t07 Drums >
s2t08 Space >
s2t09 The Wheel >
s2t10 Playin' in the Sand Reprise >
s2t11 Around & Around >
s2t12 One More Saturday Night
s2t13 Encore: It's All Over Now Baby Blue

Source: FOB Beyers mics > Sony TC-D5M > TDK MA-90's. Concert 
recording by Rip Tompkins, & with thanks to Richie Stankiewicz!

Transfer: MAC > Nakamichi CR-5A (Dolby-B in) > Edirol FA-66 > 
Wavelab 2448 > CD-Wave (24bit output) > TLH > FLAC 2448 tagged. 
Transferred by Andrew F. 07/2021

Note: ID-98609 patch; Rooster 0:02 > 0:16, Drums 6:35 > Space 0:17.

    length     expanded size    cdr  WAVE problems  fmt   ratio  filename
     2:04.000      35712044 B   cxx   --   ---xx   flac  0.6576  gd1982-07-17s1t01.flac
     6:57.693     120295724 B   cxx   --   ---xx   flac  0.7303  gd1982-07-17s1t02.flac
     4:00.840      69361964 B   cxx   --   ---xx   flac  0.7281  gd1982-07-17s1t03.flac
     8:27.240     146085164 B   cxx   --   ---xx   flac  0.7171  gd1982-07-17s1t04.flac
     3:46.827      65326124 B   cxx   --   ---xx   flac  0.7100  gd1982-07-17s1t05.flac
     5:48.400     100339244 B   cxx   --   ---xx   flac  0.7402  gd1982-07-17s1t06.flac
     8:15.747     142775084 B   cxx   --   ---xx   flac  0.7193  gd1982-07-17s1t07.flac
     8:50.867     152889644 B   cxx   --   ---xx   flac  0.7258  gd1982-07-17s1t08.flac
     8:49.880     152605484 B   cxx   --   ---xx   flac  0.7239  gd1982-07-17s1t09.flac
    11:08.589     192553790 B   cxx   --   ---xx   flac  0.7335  gd1982-07-17s1t10.flac
     1:32.720      26703404 B   cxx   --   ---xx   flac  0.6424  gd1982-07-17s2t01.flac
    11:18.440     195390764 B   cxx   --   ---xx   flac  0.7325  gd1982-07-17s2t02.flac
     7:43.520     133493804 B   cxx   --   ---xx   flac  0.7370  gd1982-07-17s2t03.flac
     5:17.520      91445804 B   cxx   --   ---xx   flac  0.7439  gd1982-07-17s2t04.flac
    10:01.093     173114924 B   cxx   --   ---xx   flac  0.7242  gd1982-07-17s2t05.flac
     5:05.147      87882284 B   cxx   --   ---xx   flac  0.6991  gd1982-07-17s2t06.flac
     7:21.520     127157804 B   cxx   --   ---xx   flac  0.6610  gd1982-07-17s2t07.flac
     4:57.987      85820204 B   cxx   --   ---xx   flac  0.6686  gd1982-07-17s2t08.flac
     5:26.347      93987884 B   cxx   --   ---xx   flac  0.7362  gd1982-07-17s2t09.flac
     4:14.333      73248044 B   cxx   --   ---xx   flac  0.7331  gd1982-07-17s2t10.flac
     3:44.840      64753964 B   cxx   --   ---xx   flac  0.7431  gd1982-07-17s2t11.flac
     4:23.413      75863084 B   cxx   --   ---xx   flac  0.7544  gd1982-07-17s2t12.flac
     7:06.735     122899832 B   cxx   --   ---xx   flac  0.7096  gd1982-07-17s2t13.flac
   146:23.698    2529706066 B                            0.7206  (23 files)

No errors occured.




More information about the bittorrent mailing list