[bittorrent] Widespread Panic Riverfront Park Amphitheatre Wilmington, North Carolina 7/18/2021 (Z-Man Schoeps CCM4V'S FOB)

Automated Mailer noreply-bt.e at etree.org
Mon Jul 19 07:07:56 UTC 2021


Band:           Widespread Panic
Torrent Name:   Widespread Panic Riverfront Park Amphitheatre Wilmington, North Carolina 7/18/2021  (Z-Man Schoeps CCM4V'S FOB)
Uploaded by:    zmanatl
DB Link:        
Details:        http://bt.etree.org/details.php?id=613236

Contact the seeder at http://db.etree.org/zmanatl

If the link to this show does not work, it was probably removed for
being non-trade-friendly.

Description / text file:
-------------------------
Widespread Panic
Riverfront Park Amphitheatre
Wilmington, North Carolina
7/18/2021 

Source: Schoeps CCM4V'S>Lunatec V2>Sound Devices 722 (24/44.1)
FOB/DFC/KFC/ZFC/AARP Section 102, Row 17, Between Seats 11 & 12, 7 1/2' High
DSP: Sound Devices 722>Sound Forge 10.0>CD Wave>flac(16)
ID3 Tagged In Foobar 2000
Recorded By: Z-Man
Seeded By: Z-Man
A Team Dirty South Recording

Disc I

01 Greeting
02 Tall Boy 
03 Space Wrangler >
04 Blackout Blues 
05 Stop/Go >
06 You Got Yours >
07 Stop/Go >
08 Imitation Leather Shoes 
09 Little Kin

Disc II 

01 Disco >
02 Little Lilly >
03 Pilgrims >
04 Bear's Gpne Fishin' >
05 Low Spark Of High-Heeled Boys >
06 Ride Me High >
07 Low Spark Of High-Heeled Boys >
08 Rebirtha >
09 Big Wooly Mammoth >
10 Henry Parsons Died >
11 Ain't Life Grand 

Disc III Encore

01 Dream Song >
02 Travelin' Light >
03 Last Dance
04 Fireworks/Outro 

John "JB" Bell - Guitar And Vocals
Jimmy Herring - Guitar
Dave Schools - Bass And Vocals
John "JoJo" Hermann - Keyboards And Vocals
Domingo "Sunny" Ortiz - Percussion 
Duane Trucks - Drums

wsp2021-07-18d01t01.flac:8a14e7feec9edc97a0e44658b82517e1
wsp2021-07-18d01t02.flac:a297a83feaad1320a35eea5e62c79278
wsp2021-07-18d01t03.flac:ce451102562fe7dc48e50a52fddab68a
wsp2021-07-18d01t04.flac:b7ea99edcd3710d39b4ca6aa8b897a6f
wsp2021-07-18d01t05.flac:11ade429e935298e05c79bd2fc91147a
wsp2021-07-18d01t06.flac:3c6166a856f6f4b6b4f55064ec8859ea
wsp2021-07-18d01t07.flac:f5794702bec454ece15cb2d54cd2d987
wsp2021-07-18d01t08.flac:16dd5b953746d82ad4de8413b6127808
wsp2021-07-18d01t09.flac:d4cbc924f2acbec86c327718d8c1c5d2
wsp2021-07-18d02t01.flac:d94e8e9e76d50354814aebf9ecdc5a99
wsp2021-07-18d02t02.flac:1c5f8ba55de462659d1485a57b68e58a
wsp2021-07-18d02t03.flac:d14c7bdb78a0f29c85d71b7102a352aa
wsp2021-07-18d02t04.flac:c42a9c48c9b6f8ac339414f14f994d20
wsp2021-07-18d02t05.flac:15c33e0019512f66508b91608fd1f416
wsp2021-07-18d02t06.flac:76710f1b106365bbfc8fed52f79c601e
wsp2021-07-18d02t07.flac:13cb404e331ef1f7ef727947b90fac1a
wsp2021-07-18d02t08.flac:73fa0fe545c05a30849070b4507263f4
wsp2021-07-18d02t09.flac:025fa7606f1f7d235715507df7d07a16
wsp2021-07-18d02t10.flac:1bf645504c6915b5bd16be66bdd929f3
wsp2021-07-18d02t11.flac:fdafb52c060fb96e18d12fae794d1cb8
wsp2021-07-18d03t01.flac:536b3f103e6841ce7825ebc92c6266c3
wsp2021-07-18d03t02.flac:159f70492b5445768b0a6a35374b24bc
wsp2021-07-18d03t03.flac:b3189832ea5774559decaa5b82b9d4fe
wsp2021-07-18d03t04.flac:72ab2b6edec2445e53a74ee586b83de7

  length     expanded size    cdr  WAVE problems  fmt   ratio  filename
     0:33.39        5912972 B   ---   --   ---xx   flac  0.3148  wsp2021-07-18d01t01.flac
     8:02.12       85053068 B   ---   --   ---xx   flac  0.4757  wsp2021-07-18d01t02.flac
     9:26.63       99990620 B   ---   --   ---xx   flac  0.4654  wsp2021-07-18d01t03.flac
     8:17.14       87703772 B   ---   --   ---xx   flac  0.4631  wsp2021-07-18d01t04.flac
     8:03.46       85309436 B   ---   --   ---xx   flac  0.4161  wsp2021-07-18d01t05.flac
     7:51.30       83155004 B   ---   --   ---xx   flac  0.4727  wsp2021-07-18d01t06.flac
     5:05.62       53947868 B   ---   --   ---xx   flac  0.4408  wsp2021-07-18d01t07.flac
     4:15.48       45094940 B   ---   --   ---xx   flac  0.5088  wsp2021-07-18d01t08.flac
     5:49.49       61678892 B   ---   --   ---xx   flac  0.5019  wsp2021-07-18d01t09.flac
     7:24.38       78411020 B   ---   --   ---xx   flac  0.4684  wsp2021-07-18d02t01.flac
     9:17.18       98297180 B   ---   --   ---xx   flac  0.4267  wsp2021-07-18d02t02.flac
     8:50.01       93494396 B   ---   --   ---xx   flac  0.4452  wsp2021-07-18d02t03.flac
    10:36.16      112228076 B   ---   --   ---xx   flac  0.4954  wsp2021-07-18d02t04.flac
     9:25.45       99771884 B   ---   --   ---xx   flac  0.4288  wsp2021-07-18d02t05.flac
     9:57.57      105444908 B   ---   --   ---xx   flac  0.4631  wsp2021-07-18d02t06.flac
     2:35.41       27438476 B   ---   --   ---xx   flac  0.4301  wsp2021-07-18d02t07.flac
     8:06.73       85902140 B   ---   --   ---xx   flac  0.4768  wsp2021-07-18d02t08.flac
     6:31.67       69130028 B   ---   --   ---xx   flac  0.4839  wsp2021-07-18d02t09.flac
     6:45.53       71566700 B   ---   --   ---xx   flac  0.4859  wsp2021-07-18d02t10.flac
     4:57.38       52480220 B   ---   --   ---xx   flac  0.4763  wsp2021-07-18d02t11.flac
     5:47.01       61213196 B   ---   --   ---xx   flac  0.3477  wsp2021-07-18d03t01.flac
     6:21.58       67344860 B   ---   --   ---xx   flac  0.4591  wsp2021-07-18d03t02.flac
     9:54.24      104838092 B   ---   --   ---xx   flac  0.4769  wsp2021-07-18d03t03.flac
     2:04.24       21930092 B   ---   --   ---xx   flac  0.3432  wsp2021-07-18d03t04.flac
   166:02.17     1757337840 B                            0.4582  (24 files)





More information about the bittorrent mailing list