[bittorrent] batm1980-11-04.buffalo.aud.flac2448

Automated Mailer noreply-bt.e at etree.org
Sun Jul 18 12:43:24 UTC 2021


Band:           Bob Weir
Torrent Name:   batm1980-11-04.buffalo.aud.flac2448
Uploaded by:    nfagdtrfb
DB Link:        
Details:        http://bt.etree.org/details.php?id=613225

Contact the seeder at http://db.etree.org/nfagdtrfb

If the link to this show does not work, it was probably removed for
being non-trade-friendly.

Description / text file:
-------------------------
BOBBY & THE MIDNITES
Kleinhans Music Hall
Buffalo NY
11-04-1980

s1t01 tuning
s1t02 Poison Ivy
s1t03 Big Iron
s1t04 Little Red Rooster
s1t05 Easy to Slip
s1t06 Salt Lake City
s1t07 Bombs Away >
s1t08 Supplication Jam >
s1t09 Promised//Land (tape-flip at 1:32)

s2t01 tuning
s2t02 Minglewood Blues
s2t03 I Found Love
s2t04 Juke
s2t05 This Time Forever >
s2t06 Shade of Grey
s2t07 Heaven Help the Fool >
s2t08 Drums// (tape flip)
s2t09 Bass & Drums Jam >
s2t10 Around & Around
s2t11 pre-encore tuning
s2t12 I'll Be Doggone >
s2t13 Wrong Way Feeling

The Band:
Tim Bogert - bass
Billy Cobham - drums
Bobby Cochran - guitar
Matt Kelly - harp, guitar, congas
Brent Mydland - keyboards
Bob Weir - guitar

Source: Sony ECM-990F stereo-mic > Sony TC-D5 > TDK-SA 90's, 
front of balcony, recording by Anon, with thanks to BFOQ.

Transfer: MAC > Nakamichi ZX-7 (no Dolby) > Focusrite Scarlett 
6i6 > Wavelab > CD-Wave (24 bit output) > TLH > FLAC 2448 tagged.

Note: There's confusion over the show date, since the Boston show 
circulates with the same date. Boston was scheduled for 11/04 then 
postponed to 11/07. There's some documentary info in this folder.

    length     expanded size    cdr  WAVE problems  fmt   ratio  filename
     2:29.427      43034924 B   cxx   --   ---xx   flac  0.6933  batm1980-11-04s1t01.flac
     4:32.400      78451244 B   cxx   --   ---xx   flac  0.7339  batm1980-11-04s1t02.flac
     4:49.880      83485484 B   cxx   --   ---xx   flac  0.7288  batm1980-11-04s1t03.flac
     9:32.120     164770604 B   cxx   --   ---xx   flac  0.7337  batm1980-11-04s1t04.flac
     6:56.840     120049964 B   cxx   --   ---xx   flac  0.7215  batm1980-11-04s1t05.flac
     4:59.267      86188844 B   cxx   --   ---xx   flac  0.7504  batm1980-11-04s1t06.flac
     6:29.747     112247084 B   cxx   --   ---xx   flac  0.7438  batm1980-11-04s1t07.flac
     5:41.120      98242604 B   cxx   --   ---xx   flac  0.7384  batm1980-11-04s1t08.flac
     2:51.459      49380368 B   cxx   --   ---xx   flac  0.7517  batm1980-11-04s1t09.flac
     0:55.893      16097324 B   cxx   --   ---xx   flac  0.6606  batm1980-11-04s2t01.flac
     6:57.547     120253484 B   cxx   --   ---xx   flac  0.7384  batm1980-11-04s2t02.flac
     9:13.000     159264044 B   cxx   --   ---xx   flac  0.7148  batm1980-11-04s2t03.flac
     5:24.733      93523244 B   cxx   --   ---xx   flac  0.7401  batm1980-11-04s2t04.flac
     4:09.853      71957804 B   cxx   --   ---xx   flac  0.6920  batm1980-11-04s2t05.flac
     5:09.560      89153324 B   cxx   --   ---xx   flac  0.7228  batm1980-11-04s2t06.flac
     7:04.613     122288684 B   cxx   --   ---xx   flac  0.7290  batm1980-11-04s2t07.flac
     6:48.973     117784364 B   cxx   --   ---xx   flac  0.7135  batm1980-11-04s2t08.flac
     6:49.000     117792044 B   cxx   --   ---xx   flac  0.7062  batm1980-11-04s2t09.flac
     5:15.187      90773804 B   cxx   --   ---xx   flac  0.7379  batm1980-11-04s2t10.flac
     1:26.813      25002284 B   cxx   --   ---xx   flac  0.6850  batm1980-11-04s2t11.flac
     4:46.400      82483244 B   cxx   --   ---xx   flac  0.7436  batm1980-11-04s2t12.flac
     6:03.574     104709266 B   cxx   --   ---xx   flac  0.7458  batm1980-11-04s2t13.flac
   118:27.406    2046934034 B                            0.7280  (22 files)

No errors occured.




More information about the bittorrent mailing list