[bittorrent] Widespread Panic Riverfront Park Amphitheatre Wilmington, North Carolina 7/17/2021 (Z-Man Schoeps CCM4V'S FOB)

Automated Mailer noreply-bt.e at etree.org
Sun Jul 18 04:54:58 UTC 2021


Band:           Widespread Panic
Torrent Name:   Widespread Panic Riverfront Park Amphitheatre Wilmington, North Carolina 7/17/2021  (Z-Man Schoeps CCM4V'S FOB)
Uploaded by:    zmanatl
DB Link:        
Details:        http://bt.etree.org/details.php?id=613223

Contact the seeder at http://db.etree.org/zmanatl

If the link to this show does not work, it was probably removed for
being non-trade-friendly.

Description / text file:
-------------------------
Widespread Panic
Riverfront Park Amphitheatre
Wilmington, North Carolina
7/17/2021 

Source: Schoeps CCM4V'S>Lunatec V2>Sound Devices 722 (24/44.1)
FOB/DFC/KFC/ZFC/AARP Section 102, Row 15, Between Seats 14 & 15, 7' High
DSP: Sound Devices 722>Sound Forge 10.0>CD Wave>flac(16)
ID3 Tagged In Foobar 2000
Recorded By: Z-Man
Seeded By: Z-Man
A Team Dirty South Recording

Disc I 1st Set

01 Greeting
02 Ribs And Whiskey >
03 Wonderin' 
04 C Brown 
05 You Wreck Me 
06 Dyin' Man >
07 Chainsaw City 
08 Hatfield 
09 For What It's Worth 

Disc II 2nd Set

01 *Slippin' Into Darkness >
02 Greta >
03 Life During Wartime >
04 Jam >
05 Drivin' Song >
06 Last Straw >
07 Happy Child >
08 Last Straw >
09 Happy Child 
10 Drivin' Son >
11 Genesis >
12 Arlene >
13 Jam >
14 Chilly Water >
15 Drum Solo >
16 Chilly Water 

Disc II Encore

01 JB Banter 
02 Vacation >
03 Porch Song 
04 Fireworks/Outro

* With Steve Lopez On Percussion

My Buddy Drew Newman's 300th Show! Congrats Drew!

John "JB" Bell - Guitar And Vocals
Jimmy Herring - Guitar
Dave Schools - Bass And Vocals
John "JoJo" Hermann - Keyboards And Vocals
Domingo "Sunny" Ortiz - Percussion 
Duane Trucks - Drums

wsp2021-07-17d01t01.flac:3ec11d00ec50879872e1ccfe2fcffc69
wsp2021-07-17d01t02.flac:f0543ad23117b3a9f3f2741940a26a3e
wsp2021-07-17d01t03.flac:1ef23c3aff44b7aa458ac9fa1acf46c4
wsp2021-07-17d01t04.flac:e4de760e1ff7d7b5460f373306c77e9b
wsp2021-07-17d01t05.flac:51893608512168a21d1742cf6eeb9b64
wsp2021-07-17d01t06.flac:f0756e4c7fd921ff863971e76071a1ec
wsp2021-07-17d01t07.flac:09fb0ee69310320cf7a4f7a4e7c8b8b3
wsp2021-07-17d01t08.flac:3c481edd1201c73d7ff8ec3cd7e652b4
wsp2021-07-17d01t09.flac:12178d54e37c483bcc7334b7a7f7d4bd
wsp2021-07-17d02t01.flac:8e0ffbcc1c6a34302167550e838805a4
wsp2021-07-17d02t02.flac:286ea976c7264f49d602e95fd995093d
wsp2021-07-17d02t03.flac:b59e2366faf4c075709af31ff91da555
wsp2021-07-17d02t04.flac:fa6514f0840e9499b320cac3da29a557
wsp2021-07-17d02t05.flac:b01d79279385ddda581490b553cda6ae
wsp2021-07-17d02t06.flac:aae28823684ae4322f4f210627192682
wsp2021-07-17d02t07.flac:d6b107cfedc21f6d6a9a100bc01854a3
wsp2021-07-17d02t08.flac:5d5bf212114cdde957ea66a2d2b9cf9f
wsp2021-07-17d02t09.flac:36e37227a115d05cce76ab1c8dd9bf31
wsp2021-07-17d02t10.flac:cc147f782c75f9712ed658868464931d
wsp2021-07-17d02t11.flac:392ac7404f478605d573d987c9e964bd
wsp2021-07-17d02t12.flac:5e7e8adca665564746d2deb81ba6f79d
wsp2021-07-17d02t13.flac:0e6bfb4ee8e0bcfee927756861c39887
wsp2021-07-17d02t14.flac:e5f27fd3703ab2619fd38f5083ae1527
wsp2021-07-17d02t15.flac:758fc6736061d9a68744381197eb7a32
wsp2021-07-17d02t16.flac:e49febdb20f50d9ac501612eb60887d1
wsp2021-07-17d03t01.flac:96ec4e9ff9173ba70270c1c0415bb33b
wsp2021-07-17d03t02.flac:e3106ba663ac0148db1f752989c28165
wsp2021-07-17d03t03.flac:0298e02111f0de43c125065fa37e01ff
wsp2021-07-17d03t04.flac:18713be157763d316d85478721736c10

 length     expanded size    cdr  WAVE problems  fmt   ratio  filename
     0:31.62        5614268 B   ---   --   ---xx   flac  0.3466  wsp2021-07-17d01t01.flac
    10:44.46      113709836 B   ---   --   ---xx   flac  0.4888  wsp2021-07-17d01t02.flac
     4:19.43       45788780 B   ---   --   ---xx   flac  0.5015  wsp2021-07-17d01t03.flac
     6:29.68       68779580 B   ---   --   ---xx   flac  0.4185  wsp2021-07-17d01t04.flac
     4:02.30       42759404 B   ---   --   ---xx   flac  0.5025  wsp2021-07-17d01t05.flac
     4:39.51       49335596 B   ---   --   ---xx   flac  0.5317  wsp2021-07-17d01t06.flac
    10:33.03      111668300 B   ---   --   ---xx   flac  0.5030  wsp2021-07-17d01t07.flac
    12:19.69      130521932 B   ---   --   ---xx   flac  0.4638  wsp2021-07-17d01t08.flac
     7:13.29       76449452 B   ---   --   ---xx   flac  0.4735  wsp2021-07-17d01t09.flac
    12:04.52      127835948 B   ---   --   ---xx   flac  0.4924  wsp2021-07-17d02t01.flac
     8:39.04       91561052 B   ---   --   ---xx   flac  0.4989  wsp2021-07-17d02t02.flac
     5:52.58       62229260 B   ---   --   ---xx   flac  0.5391  wsp2021-07-17d02t03.flac
     4:05.00       43218044 B   ---   --   ---xx   flac  0.4176  wsp2021-07-17d02t04.flac
     5:04.66       53780876 B   ---   --   ---xx   flac  0.4715  wsp2021-07-17d02t05.flac
     3:02.57       32238908 B   ---   --   ---xx   flac  0.4761  wsp2021-07-17d02t06.flac
     0:45.42        8036828 B   ---   --   ---xx   flac  0.3805  wsp2021-07-17d02t07.flac
     5:02.35       53355164 B   ---   --   ---xx   flac  0.4586  wsp2021-07-17d02t08.flac
     1:34.36       16666316 B   ---   --   ---xx   flac  0.3859  wsp2021-07-17d02t09.flac
     3:01.52       32050748 B   ---   --   ---xx   flac  0.4885  wsp2021-07-17d02t10.flac
     6:21.16       67246076 B   ---   --   ---xx   flac  0.4777  wsp2021-07-17d02t11.flac
     7:53.71       83604236 B   ---   --   ---xx   flac  0.5405  wsp2021-07-17d02t12.flac
     3:29.15       36902924 B   ---   --   ---xx   flac  0.4545  wsp2021-07-17d02t13.flac
     5:18.16       56132876 B   ---   --   ---xx   flac  0.5397  wsp2021-07-17d02t14.flac
     0:44.56        7893356 B   ---   --   ---xx   flac  0.5738  wsp2021-07-17d02t15.flac
     6:01.44       63783932 B   ---   --   ---xx   flac  0.5156  wsp2021-07-17d02t16.flac
     0:36.47        6460988 B   ---   --   ---xx   flac  0.2833  wsp2021-07-17d03t01.flac
    10:02.26      106253996 B   ---   --   ---xx   flac  0.4151  wsp2021-07-17d03t02.flac
     6:19.59       66994412 B   ---   --   ---xx   flac  0.5122  wsp2021-07-17d03t03.flac
     2:32.36       26897516 B   ---   --   ---xx   flac  0.3535  wsp2021-07-17d03t04.flac
   159:27.64     1687770604 B                            0.4811  (29 files)




More information about the bittorrent mailing list