[bittorrent] Widespread Panic Riverfront Park Amphitheatre Wilmington, North Carolina 7/16/2021 (Z-Man Schoeps CCM4V'S FOB)

Automated Mailer noreply-bt.e at etree.org
Sat Jul 17 05:30:07 UTC 2021


Band:           Widespread Panic
Torrent Name:   Widespread Panic Riverfront Park Amphitheatre Wilmington, North Carolina 7/16/2021  (Z-Man Schoeps CCM4V'S FOB)
Uploaded by:    zmanatl
DB Link:        
Details:        http://bt.etree.org/details.php?id=613201

Contact the seeder at http://db.etree.org/zmanatl

If the link to this show does not work, it was probably removed for
being non-trade-friendly.

Description / text file:
-------------------------
Widespread Panic
Riverfront Park Amphitheatre
Wilmington, North Carolina
7/16/2021 

Source: Schoeps CCM4V'S>Lunatec V2>Sound Devices 722 (24/44.1)
FOB/DFC/KFC/ZFC/AARP Section 102, Row 15, Between Seats 14 & 15, 7' High
DSP: Sound Devices 722>Sound Forge 10.0>CD Wave>flac(16)
ID3 Tagged In Foobar 2000
Recorded By: Z-Man
Seeded By: Z-Man
A Team Dirty South Recording

Disc I 1st Set

01 A Of D >
02 Lawyers, Guns, And Money >
03 One-Arm Steve >
04  Stop Breakin' Down 
05 Cotton Was King 
06 Holden Oversoul >
07 Fixin' To Die 
08 Pickin' Up The Pieces >
09 Climb To Safety 

Disc II 2nd Set

01 Second Skin >
02 Sharon
03 Machine >
04 Barstools & Dreamers  

Disc II 2nd Set Con't 

01 Pigeons >
02 1 X 1 >
03 New Blue >
04 Surprise Valley > 
05 Drum Solo >
06 Surprise Valley
07 Provin' Ground >
08 Mr. Soul
Encore:
09 Nobody's Loss 
10 North 
11 Fireworks>Outro

John "JB" Bell - Guitar And Vocals
Jimmy Herring - Guitar
Dave Schools - Bass And Vocals
John "JoJo" Hermann - Keyboards And Vocals
Domingo "Sunny" Ortiz - Percussion 
Duane Trucks - Drums

wsp2021-07-16d01t01.flac:714e76e1336b902d6097992a5acf43ca
wsp2021-07-16d01t02.flac:50eb6b2590012ed951dab9cf8e077a19
wsp2021-07-16d01t03.flac:1a57dc8f74b7081817f7427050694aed
wsp2021-07-16d01t04.flac:54eaa8d027ec67a319d857fe877eec3a
wsp2021-07-16d01t05.flac:c2609e16545a6ddecb3278d35c31b704
wsp2021-07-16d01t06.flac:db71f6c02b823a7f09c57699ea4c368c
wsp2021-07-16d01t07.flac:04f0f1a6fc1520206caf2fc82d9f85be
wsp2021-07-16d01t08.flac:6f52d06cb0671b44347f81965b64fbdb
wsp2021-07-16d01t09.flac:76f504aae18cda0b0c1949c72c76cda0
wsp2021-07-16d02t01.flac:6f9e9f22e0172e6f9846be1813cc2361
wsp2021-07-16d02t02.flac:1a0fb078340ed86d3891f704265242a8
wsp2021-07-16d02t03.flac:8614efc0d7615e0ff2824ff55e0a4a5f
wsp2021-07-16d02t04.flac:b9d44fc682e3b13c8df4f8ba39cd0ba9
wsp2021-07-16d03t01.flac:6d267ce2250351bd19d0af35d3d1fdbd
wsp2021-07-16d03t02.flac:d35d4bfce0e15df42fa9f084be84ca18
wsp2021-07-16d03t03.flac:d393c523298f5b63e486904b50106238
wsp2021-07-16d03t04.flac:c0a79164d06c2fdf56c947d4bd1c85ac
wsp2021-07-16d03t05.flac:da430865ede0c3ca105c4e5027242ca9
wsp2021-07-16d03t06.flac:107b020f09cff6e967f95e559951284e
wsp2021-07-16d03t07.flac:93f8786a4e1e471e6fc9e4b77cad99af
wsp2021-07-16d03t08.flac:3244d0a8e48bf7f323fea13b2709c4d1
wsp2021-07-16d03t09.flac:5d591083dbb263d328412b40afcb5822
wsp2021-07-16d03t10.flac:4741b39c09cce19f828b859e9e01da72
wsp2021-07-16d03t11.flac:e060392ffcc416e0a63a0d41af9061dc

 length     expanded size    cdr  WAVE problems  fmt   ratio  filename
     3:09.43       33440780 B   ---   --   ---xx   flac  0.4562  wsp2021-07-16d01t01.flac
     3:59.60       42300764 B   ---   --   ---xx   flac  0.4847  wsp2021-07-16d01t02.flac
     5:59.65       63480524 B   ---   --   ---xx   flac  0.4962  wsp2021-07-16d01t03.flac
     7:09.28       75741500 B   ---   --   ---xx   flac  0.4585  wsp2021-07-16d01t04.flac
    10:13.31      108206156 B   ---   --   ---xx   flac  0.4752  wsp2021-07-16d01t05.flac
     6:34.71       69668636 B   ---   --   ---xx   flac  0.4987  wsp2021-07-16d01t06.flac
     7:10.31       75924956 B   ---   --   ---xx   flac  0.4807  wsp2021-07-16d01t07.flac
     6:47.26       71855996 B   ---   --   ---xx   flac  0.4518  wsp2021-07-16d01t08.flac
     6:44.35       71347964 B   ---   --   ---xx   flac  0.4864  wsp2021-07-16d01t09.flac
    16:45.62      177427868 B   ---   --   ---xx   flac  0.4958  wsp2021-07-16d02t01.flac
    11:01.72      116769788 B   ---   --   ---xx   flac  0.4950  wsp2021-07-16d02t02.flac
     4:00.49       42451292 B   ---   --   ---xx   flac  0.5020  wsp2021-07-16d02t03.flac
    14:03.09      148726412 B   ---   --   ---xx   flac  0.5006  wsp2021-07-16d02t04.flac
    10:26.36      110511116 B   ---   --   ---xx   flac  0.5059  wsp2021-07-16d03t01.flac
     5:25.55       57459404 B   ---   --   ---xx   flac  0.4991  wsp2021-07-16d03t02.flac
     6:28.03       68450300 B   ---   --   ---xx   flac  0.4326  wsp2021-07-16d03t03.flac
     7:04.21       74843036 B   ---   --   ---xx   flac  0.5194  wsp2021-07-16d03t04.flac
    10:29.51      111075596 B   ---   --   ---xx   flac  0.4537  wsp2021-07-16d03t05.flac
     4:22.04       46226252 B   ---   --   ---xx   flac  0.5200  wsp2021-07-16d03t06.flac
     8:08.33       86160860 B   ---   --   ---xx   flac  0.5188  wsp2021-07-16d03t07.flac
     6:05.73       64557740 B   ---   --   ---xx   flac  0.5336  wsp2021-07-16d03t08.flac
     6:00.28       63569900 B   ---   --   ---xx   flac  0.4247  wsp2021-07-16d03t09.flac
     8:42.06       92094956 B   ---   --   ---xx   flac  0.5395  wsp2021-07-16d03t10.flac
     1:31.26       16113596 B   ---   --   ---xx   flac  0.3568  wsp2021-07-16d03t11.flac
   178:25.18     1888405392 B                            0.4885  (24 files)






More information about the bittorrent mailing list