[bittorrent] Yarn The Palm Room Wrightsville Beach, North Carolina 7/15/2021 (Z-Man Schoeps CCM4V'S FOB)

Automated Mailer noreply-bt.e at etree.org
Fri Jul 16 15:50:35 UTC 2021


Band:           Yarn Music
Torrent Name:   Yarn The Palm Room Wrightsville Beach, North Carolina 7/15/2021  (Z-Man Schoeps CCM4V'S FOB)
Uploaded by:    zmanatl
DB Link:        
Details:        http://bt.etree.org/details.php?id=613193

Contact the seeder at http://db.etree.org/zmanatl

If the link to this show does not work, it was probably removed for
being non-trade-friendly.

Description / text file:
-------------------------
Yarn
The Palm Room
Wrightsville Beach, North Carolina
7/15/2021 

Source: Schoeps CCM4V'S>Lunatec V2>Sound Devices 722 (24/44.1)
FOB/DFC/KFC/ZFC/AARP Stage Lip, 4 1/2' High
DSP: Sound Devices 722>Sound Forge 10.0>CD Wave>flac(16)
ID3 Tagged In Foobar 2000
Recorded By: Z-Man
Seeded By: Z-Man
A Team Dirty South Recording

Disc I 1st Set

01 Time Burns On
02 Dear Mama >
03 Now You're Gone 
04 The Last Time 
05 Empty Pockets 
06 Bad Bad Man 
07 Out On The Road 
08 Tennessee 
09 Woman On The Interstaqte
10 Rocket Man
11 Sioux City Gypsy 

Disc II 2nd Set

01 Blake Banter On Rick The Soundman
02 Please 
03 Take Me Out
04 I'm The Man
05 When The Summer Ends
06 Music's Only Outlaw 
07 Love/Hate
08 Play Freebird
09 I Gotta Go
10 Cat And Mouse
Encore:
11 Blake Banter
12 Cleanin' Windows 

Blake Christiana - Acoustic Guitar And Vocals
Rod Hohl - Electric Guitar
Rick Bugel - Bass
Robert Bonhomme - Drums

yarn2021-07-15d01t01.flac:f29d86a0edec7bbeff9ee6ed3c5f74fa
yarn2021-07-15d01t02.flac:b5d52db3effe7d0cb0504704fc5ee1d3
yarn2021-07-15d01t03.flac:1c5f177b17adad794cbd9f94829c128c
yarn2021-07-15d01t04.flac:4dc6d0a1c5f9e52a7422439cd3e7901b
yarn2021-07-15d01t05.flac:72c4b07ef218503d471a1ac9c29e7f9a
yarn2021-07-15d01t06.flac:924e444693998faf00fa26098132bb08
yarn2021-07-15d01t07.flac:692e6b7c7dbaae1a5eafcfde7ae51581
yarn2021-07-15d01t08.flac:c9a8447e2554eda5a184b87e21b3debe
yarn2021-07-15d01t09.flac:701cb2087aa0ad183e0f29a54c979f02
yarn2021-07-15d01t10.flac:96d6b75d2ae75f5891d068acf8593327
yarn2021-07-15d01t11.flac:377045689923d3452680f382dc3bca38
yarn2021-07-15d02t01.flac:49bd347227aa456007c6f503948aae20
yarn2021-07-15d02t02.flac:e47aaf1ae3573609eb37fa55a2151f7f
yarn2021-07-15d02t03.flac:b880a858edcb72929d1d84e4d4a6c83f
yarn2021-07-15d02t04.flac:bb0f7c7541f8dcf99423b7a0c4beda2e
yarn2021-07-15d02t05.flac:c700ca799dc58ea3c2c44772b578cb9c
yarn2021-07-15d02t06.flac:05a31dba3d7aef1885862170d6796f98
yarn2021-07-15d02t07.flac:8f8f04bf65e4c30f1a454262ab0ea979
yarn2021-07-15d02t08.flac:ab6a9de67e102b0dd4e7f1c86a82760a
yarn2021-07-15d02t09.flac:fb36c7687e8c73a6240bdf7214b05f3c
yarn2021-07-15d02t11.flac:75f14bd7f7cb8a76fff4c2c0553f4957
yarn2021-07-15d02t12.flac:728ebb18f84b5bf6d6c6a64793603bb9
yarn2021-07-15d02t20.flac:da6b4d5ec972a23a630b682818e4cc64

 length     expanded size    cdr  WAVE problems  fmt   ratio  filename
     6:57.62       73704668 B   ---   --   ---xx   flac  0.4112  yarn2021-07-15d01t01.flac
     5:57.38       63064220 B   ---   --   ---xx   flac  0.5076  yarn2021-07-15d01t02.flac
     3:38.71       38622236 B   ---   --   ---xx   flac  0.5343  yarn2021-07-15d01t03.flac
     4:43.49       50036492 B   ---   --   ---xx   flac  0.4872  yarn2021-07-15d01t04.flac
     3:50.64       40722572 B   ---   --   ---xx   flac  0.4940  yarn2021-07-15d01t05.flac
     5:44.32       60756908 B   ---   --   ---xx   flac  0.4847  yarn2021-07-15d01t06.flac
     7:20.15       77651324 B   ---   --   ---xx   flac  0.5307  yarn2021-07-15d01t07.flac
     6:48.47       72081788 B   ---   --   ---xx   flac  0.4900  yarn2021-07-15d01t08.flac
     3:48.22       40270988 B   ---   --   ---xx   flac  0.5329  yarn2021-07-15d01t09.flac
     8:27.58       89571260 B   ---   --   ---xx   flac  0.4855  yarn2021-07-15d01t10.flac
    11:25.70      120998684 B   ---   --   ---xx   flac  0.5513  yarn2021-07-15d01t11.flac
     0:36.09        6371612 B   ---   --   ---xx   flac  0.3773  yarn2021-07-15d02t01.flac
     6:10.42       65366828 B   ---   --   ---xx   flac  0.5372  yarn2021-07-15d02t02.flac
     5:10.71       54851036 B   ---   --   ---xx   flac  0.4911  yarn2021-07-15d02t03.flac
     5:50.51       61859996 B   ---   --   ---xx   flac  0.4842  yarn2021-07-15d02t04.flac
     5:06.36       54063116 B   ---   --   ---xx   flac  0.4765  yarn2021-07-15d02t05.flac
     8:50.21       93541436 B   ---   --   ---xx   flac  0.5413  yarn2021-07-15d02t06.flac
     5:49.13       61594220 B   ---   --   ---xx   flac  0.5123  yarn2021-07-15d02t07.flac
     6:51.50       72618044 B   ---   --   ---xx   flac  0.4575  yarn2021-07-15d02t08.flac
     7:29.48       79316540 B   ---   --   ---xx   flac  0.4765  yarn2021-07-15d02t09.flac
     1:23.07       14657708 B   ---   --   ---xx   flac  0.3129  yarn2021-07-15d02t11.flac
     7:06.72       75315788 B   ---   --   ---xx   flac  0.5224  yarn2021-07-15d02t12.flac
     8:26.01       89260796 B   ---   --   ---xx   flac  0.5062  yarn2021-07-15d02t20.flac
   137:35.49     1456298260 B                            0.4996  (23 files)






More information about the bittorrent mailing list