[bittorrent] gd1982-09-12.152842.beyer.tompkins.flac2448

Automated Mailer noreply-bt.e at etree.org
Fri Jul 16 14:17:56 UTC 2021


Band:           Grateful Dead
Torrent Name:   gd1982-09-12.152842.beyer.tompkins.flac2448
Uploaded by:    nfagdtrfb
DB Link:        
Details:        http://bt.etree.org/details.php?id=613190

Contact the seeder at http://db.etree.org/nfagdtrfb

If the link to this show does not work, it was probably removed for
being non-trade-friendly.

Description / text file:
-------------------------
GRATEFUL DEAD
Civic Center
Lakeland FL
09-12-1982

s1t01 Alabama Getaway >
s1t02 Greatest Story Ever Told
s1t03 Friend of the Devil
s1t04 Cassidy
s1t05 West L.A. Fade Away
s1t06 Little Red Rooster
s1t07 Brown Eyed Women
s1t08 It's All Over Now
s1t09 Might as Well

s2t01 Women Are Smarter
s2t02 Ship of Fools
s2t03 Playin' in the Band >
s2t04 Drums >
s2t05 Space >
s2t06 The Wheel >
s2t07 Not Fade Away >
s2t08 Morning Dew >
s2t09 Sugar Magnolia
s2t10 Encore: Don't Ease Me In

Source: Beyers mics > Sony TC-D5M > Maxell XLII-S 90's. Concert 
recording by Rip Tompkins, & with thanks to Richie Stankiewicz!

Transfer: MAC > Nakamichi CR-5A (Dolby-B out) > Edirol FA-66 > 
Wavelab 2448 > CD-Wave (24bit output) > TLH > FLAC 2448 tagged. 
Transferred by Andrew F. 07/2021

Note: Tape-flip patched with ID-135161, Space 0:00 > 0:38.

    length     expanded size    cdr  WAVE problems  fmt   ratio  filename
     5:22.627      92916524 B   cxx   --   ---xx   flac  0.7506  gd1982-09-12s1t01.flac
     4:07.933      71404844 B   cxx   --   ---xx   flac  0.7484  gd1982-09-12s1t02.flac
     9:40.560     167201324 B   cxx   --   ---xx   flac  0.7380  gd1982-09-12s1t03.flac
     6:03.573     104709164 B   cxx   --   ---xx   flac  0.7415  gd1982-09-12s1t04.flac
     9:23.960     162420524 B   cxx   --   ---xx   flac  0.7337  gd1982-09-12s1t05.flac
     8:04.413     139511084 B   cxx   --   ---xx   flac  0.7405  gd1982-09-12s1t06.flac
     6:11.320     106940204 B   cxx   --   ---xx   flac  0.7424  gd1982-09-12s1t07.flac
     9:07.160     157582124 B   cxx   --   ---xx   flac  0.7525  gd1982-09-12s1t08.flac
     4:40.177      80691026 B   cxx   --   ---xx   flac  0.7481  gd1982-09-12s1t09.flac
     7:46.853     134453804 B   cxx   --   ---xx   flac  0.7602  gd1982-09-12s2t01.flac
     8:19.373     143819564 B   cxx   --   ---xx   flac  0.7420  gd1982-09-12s2t02.flac
    16:59.720     293679404 B   cxx   --   ---xx   flac  0.7492  gd1982-09-12s2t03.flac
     5:18.373      91691564 B   cxx   --   ---xx   flac  0.7415  gd1982-09-12s2t04.flac
     5:03.747      87479084 B   cxx   --   ---xx   flac  0.7102  gd1982-09-12s2t05.flac
     6:13.280     107504684 B   cxx   --   ---xx   flac  0.7484  gd1982-09-12s2t06.flac
     8:27.093     146042924 B   cxx   --   ---xx   flac  0.7506  gd1982-09-12s2t07.flac
    10:46.080     186071084 B   cxx   --   ---xx   flac  0.7364  gd1982-09-12s2t08.flac
     8:11.227     141473324 B   cxx   --   ---xx   flac  0.7645  gd1982-09-12s2t09.flac
     3:26.242      59397848 B   cxx   --   ---xx   flac  0.7453  gd1982-09-12s2t10.flac
   143:13.713    2474990102 B                            0.7449  (19 files)

No errors occured.




More information about the bittorrent mailing list