[bittorrent] Jerry Garcia + Merl Saunders1975-06-08 Palo Alto FOB Cassette Master 24-bit (NEW)

Automated Mailer noreply-bt.e at etree.org
Thu Jul 15 20:21:58 UTC 2021


Band:           Garcia
Torrent Name:   Jerry Garcia + Merl Saunders1975-06-08 Palo Alto FOB Cassette Master 24-bit (NEW)
Uploaded by:    charlie miller
DB Link:        
Details:        http://bt.etree.org/details.php?id=613181

Contact the seeder at http://db.etree.org/charlie miller

If the link to this show does not work, it was probably removed for
being non-trade-friendly.

Description / text file:
-------------------------
Jerry Garcia & Merl Saunders - June 8, 1975
El Camino Park - Palo Alto, CA

Recording Info:
(FOB) 1 x Sony Condenser Mic > Cassette Master (Sony TC-152SD/Fuji Chrome Cassette)

Transfer Info:
Cassette Master (Nakamichi CR-7A) > Tascam DA-3000 (DSF 1-bit/5.6MHz) >
Tascam Hi-Res Editor (WAV 24-bit/96k) > Samplitude Pro X6 Suite > FLAC/24
(1 DVD FLAC)

Patch Info:
1 x Sony ECM-270 + 1 x Sony ECM-250 > Cassette Master (shnid=90032) supplies: 
Tore Up Over You (1:36 - 2:40)

All Transfers and Mastering by Charlie Miller
charliemiller87 at earthlink.net
July 11, 2021

Notes:
-- Recorded by David Gans
-- I cleaned up some wind noise but didn't want to ruin the low end
-- Thanks to Bob Menke, Louis Falanga and Jamie Wadell for the patch source
-- Thanks to Joe B. Jones for confirming that everything is on pitch

Setlist:
01 - Tuning
02 - The Harder They Come
03 - I Feel Like Dynamite
04 - Last Train From Poor Valley
05 - Tore Up Over You
06 - Little Sunflower
07 - Mystery Train


SHNTOOL OUTPUT:
    length     expanded size    cdr  WAVE problems  fmt   ratio  filename
     4:23.637     151855142 B   cxx   --   ---xx   flac  0.3878  01 Tuning.flac
    16:28.949     569634560 B   cxx   --   ---xx   flac  0.4063  02 The Harder They Come.flac
    12:02.399     416101586 B   cxx   --   ---xx   flac  0.4022  03 I Feel Like Dynamite.flac
    12:13.588     422546738 B   cxx   --   ---xx   flac  0.4026  04 Last Train From Poor Valley.flac
     9:54.826     342619910 B   cxx   --   ---xx   flac  0.4515  05 Tore Up Over You.flac
    18:39.578     644876732 B   cxx   --   ---xx   flac  0.4003  06 Little Sunflower.flac
    11:49.528     408688082 B   cxx   --   ---xx   flac  0.4042  07 Mystery Train.flac
    85:32.504    2956322750 B                            0.4079  (7 files)




More information about the bittorrent mailing list