[bittorrent] Zach Bellas Band Barzarre Wilmington, North Carolina 7/14/2021 (Schoeps CCM4V'S FOB Z-Man)

Automated Mailer noreply-bt.e at etree.org
Thu Jul 15 03:03:41 UTC 2021


Band:           Other
Torrent Name:   Zach Bellas Band Barzarre Wilmington, North Carolina 7/14/2021  (Schoeps CCM4V'S FOB Z-Man)
Uploaded by:    zmanatl
DB Link:        
Details:        http://bt.etree.org/details.php?id=613177

Contact the seeder at http://db.etree.org/zmanatl

If the link to this show does not work, it was probably removed for
being non-trade-friendly.

Description / text file:
-------------------------
Zach Bellas Band
Barzarre
Wilmington, North Carolina
7/14/2021 

Source: Schoeps CCM4V'S>Lunatec V2>Sound Devices 722 (24/44.1)
FOB/DFC/KFC/ZFC/AARP 8' From Stage, 4 1/2' High
DSP: Sound Devices 722>Sound Forge 10.0>CD Wave>flac(16)
ID3 Tagged In Foobar 2000
Recorded By: Z-Man
Seeded By: Z-Man
A Team Dirty South Recording

Disc I 

01 Greeting By Zach
02 No One Cares
03 Rodeo
04 5 AM
05 We're All In This Together
06 10,000 Years Ago
07 The Whole Way Home
08 With You
09 When I Need It The Worst
10 But For Now

Zach Bellas - Guitar And Vocals
Kyle Hadley - Bass And Vocals
Tom McAteer - Drums

zach2021-07-14d01t01.flac:a84c77de95b7da500f861d8beaa91a66
zach2021-07-14d01t02.flac:783d0300c3f8ffec40fffa9401e73e49
zach2021-07-14d01t03.flac:226048a253ae7f88f0262ede84a25ec5
zach2021-07-14d01t04.flac:7fc308db4557882235da0dc43690c556
zach2021-07-14d01t05.flac:42897cb67832d9795638f2225ebca14f
zach2021-07-14d01t06.flac:d25768e6dc76999b5f99045c8c15220a
zach2021-07-14d01t07.flac:f8f59e310d1f7c0d263955dda7208593
zach2021-07-14d01t08.flac:52ed0edba185712c86ddf12468faa3fe
zach2021-07-14d01t09.flac:66dd72e9f958716c856e23be258e2f40
zach2021-07-14d01t10.flac:02bafe454919e02e4df13d59c23c5b08

 length     expanded size    cdr  WAVE problems  fmt   ratio  filename
     0:53.30        9419804 B   ---   --   ---xx   flac  0.3128  zach2021-07-14d01t01.flac
     3:26.01       36340796 B   ---   --   ---xx   flac  0.5531  zach2021-07-14d01t02.flac
     4:48.46       50911436 B   ---   --   ---xx   flac  0.5939  zach2021-07-14d01t03.flac
     2:39.03       28054700 B   ---   --   ---xx   flac  0.6008  zach2021-07-14d01t04.flac
     4:57.19       52435532 B   ---   --   ---xx   flac  0.5861  zach2021-07-14d01t05.flac
     5:18.12       56123468 B   ---   --   ---xx   flac  0.5021  zach2021-07-14d01t06.flac
     3:36.39       38194172 B   ---   --   ---xx   flac  0.5278  zach2021-07-14d01t07.flac
     5:02.05       53284604 B   ---   --   ---xx   flac  0.5081  zach2021-07-14d01t08.flac
     3:08.61       33306716 B   ---   --   ---xx   flac  0.4998  zach2021-07-14d01t09.flac
     6:05.23       64440140 B   ---   --   ---xx   flac  0.5796  zach2021-07-14d01t10.flac
    39:55.14      422511368 B                            0.5451  (10 files)





More information about the bittorrent mailing list