[bittorrent] gd1990-07-14.mtx.tobin.152771.flac16

Automated Mailer noreply-bt.e at etree.org
Mon Jul 12 16:38:53 UTC 2021


Band:           Grateful Dead
Torrent Name:   gd1990-07-14.mtx.tobin.152771.flac16
Uploaded by:    furnab2lax
DB Link:        
Details:        http://bt.etree.org/details.php?id=613160

Contact the seeder at http://db.etree.org/furnab2lax

If the link to this show does not work, it was probably removed for
being non-trade-friendly.

Description / text file:
-------------------------
Grateful Dead
July 14, 1990
Foxboro Stadium,
Foxboro, MA

SBD + AUD Matrix 2 Source Mix (44/16)

Set 1:
01 - Shakedown Street
02 - Walkin' Blues
03 - Far From Me
04 - Candyman
05 - Stuck Inside Of Mobile With The Memphis Blues Again
06 - Ramble On Rose
07 - One More Saturday Night

Set 2:
08 - Take A Step Back
09 - Eyes Of The World ->
10 - Estimated Prophet ->
11 - Crazy Fingers ->
12 - Uncle John's Band ->
13 - Drums ->
14 - Space ->
15 - I Will Take You Home ->
16 - I Need A Miracle ->
17 - Goin' Down The Road Feeling Bad ->
18 - Throwing Stones ->
19 - Lovelight

Encore:
20 - The Last Time ->
21 - We Bid You Goodnight

Jerry Garcia - Guitar
Bob Weir - Guitar
Brent Mydland - Keyboards
Phil Lesh - Bass
Bill Kreutzmann - Drums
Mickey Hart - Drums

Audio Information:
Audio: SBD (shnid=106404)
Recording Info:
SBD -> Cassette Master (TDK SA-X100)

Transfer Info:
Cassette Master (Nakamichi DR-1) -> Sound Devices 744T (24bit/96k) ->
Samplitude Professional v11.03 -> FLAC/24
(1 DVD FLAC)

All Transfers and Mastering By Charlie Miller
charliemiller87 at earthlink.net
March 4, 2010

Original  AUD (shnid=147814)
Recording Info: 
Master Audience Recording
Nakamichi 300 Mics > Marantz PMD430 Recorder, DBX on > Maxell XLII-S cassette 

Transfer info: Cassette Master -> Nakamichi Cassette Deck 1.5 > DBX 224X-DS Noise Reduction System > Sound Devices 722

Recorded and transfered by Allen Ryals  (billtmcdee)
Patched and Pitched by Jason Chastain
Mastered by Jamie Waddell
Tracked and Flac'd by Norm Bowen

Many thanks to:
Kenny Watts for the 722
Steve Ulman for the patch out that night

AUD was patched with the following source:
AUD (shnid = 130835)

Master Audience Recorded By Steve Hill, Transfer By Keo
  2 Nakamichi CM100/CP4 Shotguns + 1 Sennheiser 421 >
   Unknown Mixer (Either A Radio Shack Or Boss) 1/4 Inch In/RCA Out >
    Sony TC-D5m, Tapes:Maxell MX 90 + 100
 Transfer With Nakamichi MR-1 > Korg MR-1000 @ 1 Bit/5.6 MHz
  Tracking/Sample Rate Conversion/Flacked With AudioGate Software To 24/96 kHz
   Metadata Tagging With Tag&Rename
---------------------------------------------------------
- Mixed by kevtobin at yahoo.com
- FLAC conversion 05-JUL-2021 - Trader Little Helper
- Tagged 05-JUL-2021 - Tag&Rename
---------------------------------------------------------
rBrain Pro was used for 96/24 > 44/16 encoding.

Brokedown House Production

SHNTOOL OUTPUT:
    length     expanded size    cdr  WAVE problems  fmt   ratio  filename
    13:14.46      140169836 B   ---   --   -----    wav  1.0000  01 Shakedown Street.wav
     6:58.40       73829324 B   ---   --   -----    wav  1.0000  02 Walkin' Blues.wav
     7:45.31       82098956 B   ---   --   -----    wav  1.0000  03 Far From Me.wav
     7:55.04       83799452 B   ---   --   -----    wav  1.0000  04 Candyman.wav
    10:57.06      115908956 B   ---   --   -----    wav  1.0000  05 Stuck Inside Of Mobile With The Memphis Blues Again.wav
     9:12.24       97429292 B   ---   --   -----    wav  1.0000  06 Ramble On Rose.wav
     4:58.31       52640156 B   ---   --   -----    wav  1.0000  07 One More Saturday Night.wav
     0:59.42       10506428 B   ---   --   -----    wav  1.0000  08 Take A Step Back.wav
    14:02.64      148679372 B   ---   --   -----    wav  1.0000  09 Eyes Of The World.wav
    11:58.47      126765788 B   ---   --   -----    wav  1.0000  10 Estimated Prophet.wav
     7:50.38       82997420 B   ---   --   -----    wav  1.0000  11 Crazy Fingers.wav
     9:15.62       98047868 B   ---   --   -----    wav  1.0000  12 Uncle John's Band.wav
    10:27.37      110689868 B   ---   --   -----    wav  1.0000  13 Drums.wav
     9:18.70       98595884 B   ---   --   -----    wav  1.0000  14 Space.wav
     4:21.39       46132172 B   ---   --   -----    wav  1.0000  15 I Will Take You Home.wav
     4:45.74       50448092 B   ---   --   -----    wav  1.0000  16 I Need A Miracle.wav
     6:56.71       73549436 B   ---   --   -----    wav  1.0000  17 Goin' Down The Road Feeling Bad.wav
     9:37.46      101891036 B   ---   --   -----    wav  1.0000  18 Throwing Stones.wav
     7:14.17       76597628 B   ---   --   -----    wav  1.0000  19 Turn On Your Lovelight.wav
     6:15.42       66248828 B   ---   --   -----    wav  1.0000  20 The Last Time.wav
     2:38.28       27937100 B   ---   --   -----    wav  1.0000  21 We Bid You Goodnight.wav
   166:45.34     1764962892 B                            1.0000  (21 files)



More information about the bittorrent mailing list